Честь самурая (Надежда Якушева) [2012, криминал, WEB-DLRip]

Ответить на тему
 
Автор Сообщение

user ®

Стаж: 7 лет 7 месяцев

Сообщений: 20008

Пост Пост: #1 от 01-Авг-2013 09:35

[Цитировать]

Честь самурая- Жанр: криминал
Год выпуска: 2012
Продолжительность: 01:31:41-Режиссер: Надежда Якушева
В ролях: Евгений Дятлов, Валерия Сухачева, Дмитрий Луговкин, Юлия Нижельская, Александр Половцев, Олег Андреев, Михаил Лучко, Вероника Норина, Борис Чердынцев, Александр Иванов, Алексей Федотов, Николай Иванов, Владимир Норенко, Геннадий Макоев, Павел Харизанов, Александр Москвин, Владимир Борисов, Андрей Котов, Евгений Покрамович, Дмитрий Бульба, Андрей Короткевич, Галина Зайцева, Николай Сонин, Сергей Ноздрин, Денис Горин, Александр Клемантович, Сергей Шкарбан-Описание: За свое увлечение восточными единоборствами оперативника Николая Дымова коллеги прозвали Самураем. Он холоден, беспристрастен, а допросы с его участием напоминают захватывающий психологический поединок. Он смело бросается в бой. Особенно, когда дело касается его дочери. Спустя годы разлуки девушка приезжает к отцу. Капитан полиции, привыкший общаться с суровыми коллегами по работе и преступниками, с трудом находит общий язык с повзрослевшей дочерью. Особенно тяжело ему приходится, когда он узнаёт, что дочка собирается замуж за бандита...-Доп. информация:
Сценарий: Вячеслав Шмидт
Продюсер: Александр Бурцев
Оператор: Кирилл Мошкович
Композитор: Вадим Тур

-Качество видео: WEB-DLRip
Формат видео: AVI
Видео: XviD 1.2.1, 720x400 (16:9), 1932 kbps, 25 fps, 0,268 bpp
Аудио: AC3 / 2.0 / 48 kHz / 192 kbps / 16 bit-

MediaInfo

General
Complete name : G:\Chest.samuraja.2012.O.WEBDLRip.avi
Format : AVI
Format/Info : Audio Video Interleave
File size : 1.37 GiB
Duration : 1h 31mn
Overall bit rate : 2 135 Kbps
Writing application : VirtualDubMod 1.5.10.3 (build 2550/release)
Writing library : VirtualDubMod build 2550/release
Video
ID : 0
Format : MPEG-4 Visual
Format profile : Advanced Simple@L5
Format settings, BVOP : 2
Format settings, QPel : No
Format settings, GMC : No warppoints
Format settings, Matrix : Custom
Codec ID : XVID
Codec ID/Hint : XviD
Duration : 1h 31mn
Bit rate : 1 933 Kbps
Width : 720 pixels
Height : 400 pixels
Display aspect ratio : 16:9
Frame rate : 25.000 fps
Color space : YUV
Chroma subsampling : 4:2:0
Bit depth : 8 bits
Scan type : Progressive
Compression mode : Lossy
Bits/(Pixel*Frame) : 0.268
Stream size : 1.24 GiB (91%)
Writing library : XviD 1.2.1 (UTC 2008-12-04)
Audio
ID : 1
Format : AC-3
Format/Info : Audio Coding 3
Mode extension : CM (complete main)
Codec ID : 2000
Duration : 1h 31mn
Bit rate mode : Constant
Bit rate : 192 Kbps
Channel(s) : 2 channels
Channel positions : Front: L R
Sampling rate : 48.0 KHz
Bit depth : 16 bits
Compression mode : Lossy
Stream size : 126 MiB (9%)
Alignment : Split accross interleaves
Interleave, duration : 40 ms (1.00 video frame)
Interleave, preload duration : 500 ms

Скриншот с названием фильма

Скриншоты

Скачать

Скачать торрент!

Как скачивать? · Что такое торрент? · Рейтинг и ограничения

Сайт не распространяет и не хранит электронные версии произведений, а лишь предоставляет доступ к создаваемому пользователями каталогу ссылок на торрент-файлы, которые содержат только списки хеш-сумм

[Профиль] [ЛС]
Показать сообщения:    
Ответить на тему

Текущее время: Сегодня 07:08

Часовой пояс: GMT + 4



Вы не можете начинать темы
Вы не можете отвечать на сообщения
Вы не можете редактировать свои сообщения
Вы не можете удалять свои сообщения
Вы не можете голосовать в опросах
Вы не можете прикреплять файлы к сообщениям
Вы не можете скачивать файлы