Я - кукла (Юрий Кара) [2001, боевик, DVDRip-AVC]

Ответить на тему
 
Автор Сообщение

user ®

Стаж: 7 лет 7 месяцев

Сообщений: 20008

Пост Пост: #1 от 01-Авг-2013 09:35

[Цитировать]

Я - кукла
Жанр: боевик
Год выпуска: 2001
Продолжительность: 01:39:10
Режиссёр: Юрий Кара
В ролях: Александр Домогаров, Ольга Сумская, Наталья Громушкина, Сергей Никоненко, Николай Чиндяйкин, Денис Карасёв, Алла Миронова, Лариса Павлова, Юрий Думчев, Аристарх Ливанов, Игорь Новоселов, Сергей Силкин, Владимир Епископосян, Александр Аблязов, Инна Пиварс, Андрей Ливанов, Юлия Сташенко, Виталий Абдулов, Долон Жумабаев
Описание: "Куклы" - это смертники, на которых натравливают десантников и спецназовцев. На "кукол" делают ставки, их можно калечить и убивать, тех, кто не в состоянии продолжать бой, пристреливают. Но всё может быть и не так, если одной из кукол станет бывший спецназовец...
Доп. информация: Премьера - 4 апреля 2002 года.

Раздача ведется с 9 до 24 Киев
Качество видео: DVDRip-AVC
Формат видео: MKV
Видео: AVC (H.264), 674x480@798x480 (1,66:1), 25 fps, 1884 kbps
Аудио: 48 kHz, АC3, 2 ch, 224 kbps

MediaInfo

Общее
Уникальный идентификатор : 251245288817510272472219585319792900187 (0xBD04151F816A805B8DC7DDB9A885785B)
Полное имя : Я - кукла (2002).mkv
Формат : Matroska
Версия формата : Version 4 / Version 2
Размер файла : 1,46 Гбайт
Продолжительность : 1 ч. 39 м.
Общий поток : 2110 Кбит/сек
Дата кодирования : UTC 2013-04-15 17:51:17
Программа кодирования : mkvmerge v6.1.0 ('Old Devil') built on Mar 2 2013 14:32:37
Библиотека кодирования : libebml v1.3.0 + libmatroska v1.4.0
Видео
Идентификатор : 1
Формат : AVC
Формат/Информация : Advanced Video Codec
Профиль формата : High@L4.1
Параметр CABAC формата : Да
Параметр ReFrames формата : 5 кадров
Идентификатор кодека : V_MPEG4/ISO/AVC
Продолжительность : 1 ч. 39 м.
Битрейт : 1884 Кбит/сек
Ширина : 674 пикселя
Высота : 480 пикселей
Соотношение сторон : 1,663
Частота кадров : 25,000 кадров/сек
Цветовое пространство : YUV
Субдискретизация насыщенности : 4:2:0
Битовая глубина : 8 бит
Тип развёртки : Прогрессивная
Бит/(Пиксели*Кадры) : 0.233
Размер потока : 1,28 Гбайт (87%)
Библиотека кодирования : x264 core 130 r2273 b3065e6
Настройки программы : cabac=1 / ref=5 / deblock=1:-1:-1 / analyse=0x3:0x133 / me=umh / subme=9 / psy=1 / psy_rd=1.00:0.00 / mixed_ref=1 / me_range=32 / chroma_me=1 / trellis=2 / 8x8dct=1 / cqm=0 / deadzone=21,11 / fast_pskip=1 / chroma_qp_offset=-2 / threads=3 / lookahead_threads=1 / sliced_threads=0 / nr=0 / decimate=1 / interlaced=0 / bluray_compat=0 / constrained_intra=0 / bframes=9 / b_pyramid=2 / b_adapt=2 / b_bias=0 / direct=3 / weightb=1 / open_gop=0 / weightp=2 / keyint=250 / keyint_min=25 / scenecut=40 / intra_refresh=0 / rc_lookahead=60 / rc=2pass / mbtree=1 / bitrate=1884 / ratetol=1.0 / qcomp=0.60 / qpmin=0 / qpmax=69 / qpstep=4 / cplxblur=20.0 / qblur=0.5 / ip_ratio=1.40 / aq=1:1.00
Язык : English
Default : Да
Forced : Нет
Аудио
Идентификатор : 2
Формат : AC-3
Формат/Информация : Audio Coding 3
Расширение режима : CM (complete main)
Параметр Endianness формата : Big
Идентификатор кодека : A_AC3
Продолжительность : 1 ч. 39 м.
Вид битрейта : Постоянный
Битрейт : 224 Кбит/сек
Каналы : 2 канала
Расположение каналов : Front: L R
Частота : 48,0 КГц
Битовая глубина : 16 бит
Метод сжатия : С потерями
Задержка видео : 12 мс.
Размер потока : 159 Мбайт (11%)
Default : Да
Forced : Нет
Скачать

Скачать торрент!

Как скачивать? · Что такое торрент? · Рейтинг и ограничения

Сайт не распространяет и не хранит электронные версии произведений, а лишь предоставляет доступ к создаваемому пользователями каталогу ссылок на торрент-файлы, которые содержат только списки хеш-сумм

[Профиль] [ЛС]
Показать сообщения:    
Ответить на тему

Текущее время: Сегодня 16:16

Часовой пояс: GMT + 4



Вы не можете начинать темы
Вы не можете отвечать на сообщения
Вы не можете редактировать свои сообщения
Вы не можете удалять свои сообщения
Вы не можете голосовать в опросах
Вы не можете прикреплять файлы к сообщениям
Вы не можете скачивать файлы