Шутить изволите? (Мирза-Ага (Михаил) Ашумов) [1999, комедия, экранизация, TVRip]

Ответить на тему
 
Автор Сообщение

user ®

Стаж: 7 лет 7 месяцев

Сообщений: 20008

Пост Пост: #1 от 01-Авг-2013 09:35

[Цитировать]

Шутить изволите?
Жанр: комедия, экранизация
Год выпуска: 1999
Продолжительность: 01:14:26
Режиссёр: Мирза-Ага (Михаил) Ашумов
В ролях: Александр Феклистов, Сергей Габриэлян, Анна Скварник, Юрий Митрофанов, Лейла Ашрафова, Расми (Рамзес) Джабраилов, Григорий Багров, Дмитрий Павленко, Елена Ломтева, Тамара Носова, Марина Яковлева, Владимир Большов, Фёдор Добронравов, Алексей Якубов, Александр Резалин, Валерий Оладушкин, Сергей Бадичкин, Святослав Ещенко, Александр Олешко, Василий Николаенко, Сергей Ковалёв
Описание: По рассказам Аркадия Аверченко. Новеллы: "Утро", "Ниночка", "Служба", "Выставка", "Ихневмон", "Будьте здоровы!", "Железная память", "Дама в черном", "Судьба человека", "На сон грядущий".
Сэмпл: http://www.sendspace.com/file/65k4b6
Качество видео: TVRip
Формат видео: AVI
Видео: XviD, 640х480, (1.33:1), 25 fps, ~2000 kbs
Аудио: : MP3, 48 kHz, 2 channels, 128 kbs

MediaInfo

D:\Видео\Торрент\Видео для торрента\Шутить изволите.avi
General
Complete name : D:\Видео\Торрент\Видео для торрента\Шутить изволите.avi
Format : AVI
Format/Info : Audio Video Interleave
Format profile : OpenDML
File size : 1.11 GiB
Duration : 1h 14mn
Overall bit rate : 2 143 Kbps
Writing application : Lavf52.94.0
Video #0
ID : 0
Format : MPEG-4 Visual
Format profile : Simple@L3
Format settings, BVOP : No
Format settings, QPel : No
Format settings, GMC : No warppoints
Format settings, Matrix : Default (H.263)
Codec ID : XVID
Codec ID/Hint : XviD
Duration : 1h 14mn
Bit rate : 1 999 Kbps
Width : 640 pixels
Height : 480 pixels
Display aspect ratio : 4:3
Frame rate : 25.000 fps
Color space : YUV
Chroma subsampling : 4:2:0
Bit depth : 8 bits
Scan type : Progressive
Compression mode : Lossy
Bits/(Pixel*Frame) : 0.260
Stream size : 1.04 GiB (93%)
Writing library : XviD 1.2.1 (UTC 2008-12-04)
Audio #1
ID : 1
Format : MPEG Audio
Format version : Version 1
Format profile : Layer 3
Mode : Joint stereo
Mode extension : MS Stereo
Codec ID : 55
Codec ID/Hint : MP3
Duration : 1h 14mn
Bit rate mode : Constant
Bit rate : 128 Kbps
Channel(s) : 2 channels
Sampling rate : 48.0 KHz
Compression mode : Lossy
Stream size : 68.1 MiB (6%)
Alignment : Aligned on interleaves
Interleave, duration : 24 ms (0.60 video frame)

Скриншот c названием фильма

Скриншоты







Скачать

Скачать торрент!

Как скачивать? · Что такое торрент? · Рейтинг и ограничения

Сайт не распространяет и не хранит электронные версии произведений, а лишь предоставляет доступ к создаваемому пользователями каталогу ссылок на торрент-файлы, которые содержат только списки хеш-сумм

[Профиль] [ЛС]
Показать сообщения:    
Ответить на тему

Текущее время: Сегодня 06:10

Часовой пояс: GMT + 4



Вы не можете начинать темы
Вы не можете отвечать на сообщения
Вы не можете редактировать свои сообщения
Вы не можете удалять свои сообщения
Вы не можете голосовать в опросах
Вы не можете прикреплять файлы к сообщениям
Вы не можете скачивать файлы