Журавли над Ильменем (Никита Аржаков) [2005, Военная драма, VHSRip]

Ответить на тему
 
Автор Сообщение

user ®

Стаж: 7 лет 7 месяцев

Сообщений: 20008

Пост Пост: #1 от 01-Авг-2013 09:35

[Цитировать]

Журавли над Ильменем
Жанр: Военная драма
Год выпуска: 2005
Продолжительность: 01:29:22
Режиссёр: Никита Аржаков
В ролях:
Федот Львов, Нюргуяна Михайлова, Илья Данилевский, Марина Слепнева, Раиса Слепцова, Татьяна Мыреева, Софья Баранова, Зоя Попова, Александра Мучкина, Надежда Ушницкая
Описание: Спокойную размеренную жизнь якутского алааса разрушила Великая отечественная война. Мужья — отличные охотники и стрелки — уходят на фронт, жен приказом властей переселяют с насиженных мест поближе к реке на заготовку рыбы. Молодая девушка сразу после свадьбы провожает мужа на войну. На освобождение от фашистских захватчиков Старой Руссы на озере Ильмень были брошены лучшие силы, в том числе более 700 якутов в составе 19-й отдельной лыжной бригады.
Доп. информация: Простите ребята начало отсутствует.
Качество видео: VHSRip
Формат видео: AVI
Видео: xvid, 720x400,16:9 ratio,25.0000 fps,1800 kbps
Аудио: Русский,mpeg layer 3,48000,128 kbps,Mono

MediaInfo

Format : AVI
Format/Info : Audio Video Interleave
File size : 1.21 GiB
Duration : 1h 29mn
Overall bit rate : 1 933 Kbps
Writing application : VirtualDubMod 1.5.10.2 (build 2542/release)
Writing library : VirtualDubMod build 2542/release
Video
ID : 0
Format : MPEG-4 Visual
Format profile : Advanced Simple@L5
Format settings, BVOP : 2
Format settings, QPel : No
Format settings, GMC : No warppoints
Format settings, Matrix : Default (H.263)
Codec ID : XVID
Codec ID/Hint : XviD
Duration : 1h 29mn
Bit rate : 1 795 Kbps
Width : 720 pixels
Height : 400 pixels
Display aspect ratio : 16:9
Frame rate : 25.000 fps
Color space : YUV
Chroma subsampling : 4:2:0
Bit depth : 8 bits
Scan type : Progressive
Compression mode : Lossy
Bits/(Pixel*Frame) : 0.249
Stream size : 1.12 GiB (93%)
Writing library : XviD 64
Audio
ID : 1
Format : MPEG Audio
Format version : Version 1
Format profile : Layer 3
Codec ID : 55
Codec ID/Hint : MP3
Duration : 1h 29mn
Bit rate mode : Constant
Bit rate : 128 Kbps
Channel(s) : 1 channel
Sampling rate : 48.0 KHz
Compression mode : Lossy
Stream size : 81.8 MiB (7%)
Alignment : Split accross interleaves
Interleave, duration : 40 ms (1.00 video frame)
Interleave, preload duration : 500 ms

Скриншоты

Скачать

Скачать торрент!

Как скачивать? · Что такое торрент? · Рейтинг и ограничения

Сайт не распространяет и не хранит электронные версии произведений, а лишь предоставляет доступ к создаваемому пользователями каталогу ссылок на торрент-файлы, которые содержат только списки хеш-сумм

[Профиль] [ЛС]
Показать сообщения:    
Ответить на тему

Текущее время: Сегодня 01:13

Часовой пояс: GMT + 4



Вы не можете начинать темы
Вы не можете отвечать на сообщения
Вы не можете редактировать свои сообщения
Вы не можете удалять свои сообщения
Вы не можете голосовать в опросах
Вы не можете прикреплять файлы к сообщениям
Вы не можете скачивать файлы