Любовь из пробирки (Илья Хотиненко, Сергей Гиргель) [2013 г., Мелодрама, HDTVRip]

Ответить на тему
 
Автор Сообщение

user ®

Стаж: 7 лет 7 месяцев

Сообщений: 20008

Пост Пост: #1 от 01-Авг-2013 09:35

[Цитировать]

Любовь из пробиркиГод выпуска: 2013.
Страна: Россия .
Киностудия: "Медиапрофсоюз".
Жанр: Мелодрама.
Продолжительность: 01:40:05.
Режиссеры: Илья Хотиненко, Сергей Гиргель.
Автор сценария: Яна Романенко.
Оператор: Григорий Рудаков.
Композиторы: Игорь Щербаков, Климент Шленев.
Художник: Наталья Кабулова.
В ролях:
Яна Шивкова, Юрий Батурин, Сергей Комаров, Ирина Нарбекова, Антон Страшко, Ольга Бурлакова, Анастасия Минаева, Виктор Синайский, Евгений Никитин, Андрей Карако, Валерий Кащеев, Сергей Толстиков, Виктория Жбанкова, Алла Ефимова, Андрей Кривецкий.
Описание:
Нине слегка за 30. Так и не встретив настоящую любовь, она решает «родить для себя». Только найти нормального кандидата на роль «папы» оказывается не так-то просто. На помощь сестре приходит находчивая Галина, которая работает в центре репродуктивной медицины. Она отбирает самый лучший «генофонд» для своего будущего племянника. Донором становится шикарный и… ничего не подозревающий клиент центра - бизнесмен Валерий Уваров. ЭКО проходит удачно, и на свет появляется Стёпка... Спустя шесть лет жизнь героини входит в нормальное русло: у неё подрастает сын, находится высокооплачиваемая работа, но… У судьбы на Нину явно свои планы. Неожиданно она узнает, что ее шеф, сухарь и тиран, оказывается, и есть отец Стёпки...
Доп. информация:
Премьера: 28 апреля 2013 года.


Качество: HDTVRip
Формат: AVI
Видео: 640x352 (1.82:1), 25 fps, XviD build 73 ~904 kbps avg, 0.16 bit/pixel
Аудио: 48 kHz, MPEG Layer 3, 2 ch, ~128.00 kbps avg

Отчет MediaInfo

Общее
Полное имя : E:\111111\Ljubov'.iz.probirki.2013.XviD.HDTVRip_745.avi
Формат : AVI
Формат/Информация : Audio Video Interleave
Размер файла : 746 Мбайт
Продолжительность : 1 ч. 40 м.
Общий поток : 1043 Кбит/сек
Программа кодирования : VirtualDubMod 1.5.10.3 | www.virtualdub-fr.org || (build 2550/release)
Библиотека кодирования : VirtualDubMod build 2550/release
Видео
Идентификатор : 0
Формат : MPEG-4 Visual
Профиль формата : Advanced Simple@L5
Параметр BVOP формата : 2
Параметр QPel формата : Нет
Параметр GMC формата : Без точки перехода
Параметр матрицы формата : Выборочная
Идентификатор кодека : XVID
Идентификатор кодека/Подсказка : XviD
Продолжительность : 1 ч. 40 м.
Битрейт : 905 Кбит/сек
Ширина : 640 пикселей
Высота : 352 пикселя
Соотношение сторон : 16:9
Частота кадров : 25,000 кадров/сек
Цветовое пространство : YUV
Субдискретизация насыщенности : 4:2:0
Битовая глубина : 8 бит
Тип развёртки : Прогрессивная
Метод сжатия : С потерями
Бит/(Пиксели*Кадры) : 0.161
Размер потока : 648 Мбайт (87%)
Библиотека кодирования : XviD 73
Аудио
Идентификатор : 1
Формат : MPEG Audio
Версия формата : Version 1
Профиль формата : Layer 3
Идентификатор кодека : 55
Идентификатор кодека/Подсказка : MP3
Продолжительность : 1 ч. 40 м.
Вид битрейта : Постоянный
Битрейт : 128 Кбит/сек
Каналы : 2 канала
Частота : 48,0 КГц
Метод сжатия : С потерями
Размер потока : 91,6 Мбайт (12%)
Выравнивание : Соединение по промежуткам
Продолжительность промежутка : 40 мс. (1,00 видеокадр)
Время предзагрузки промежутка : 504 мс.
Библиотека кодирования : LAME3.99r
Настройки программы : -m s -V 4 -q 2 -lowpass 17 -b 128

Скриншот с названием

Скриншоты


Альтернативный хост


Скачать

Скачать торрент!

Как скачивать? · Что такое торрент? · Рейтинг и ограничения

Сайт не распространяет и не хранит электронные версии произведений, а лишь предоставляет доступ к создаваемому пользователями каталогу ссылок на торрент-файлы, которые содержат только списки хеш-сумм

[Профиль] [ЛС]
Показать сообщения:    
Ответить на тему

Текущее время: Сегодня 14:33

Часовой пояс: GMT + 4



Вы не можете начинать темы
Вы не можете отвечать на сообщения
Вы не можете редактировать свои сообщения
Вы не можете удалять свои сообщения
Вы не можете голосовать в опросах
Вы не можете прикреплять файлы к сообщениям
Вы не можете скачивать файлы