Ванька (Вячеслав Лавров) [2013, лирическая комедия, WEB-DLRip]

Ответить на тему
 
Автор Сообщение

user ®

Стаж: 7 лет 7 месяцев

Сообщений: 20008

Пост Пост: #1 от 01-Авг-2013 09:35

[Цитировать]

Ванька
Жанр: лирическая комедия
Год выпуска: 2013
Продолжительность: 01:30:12
Режиссёр: Вячеслав Лавров
В ролях: Мария Бортник, Максим Сапрыкин, Антон Батырев, Александра Назарова, Наталья Дворецкая, Александр Ковалев, Наталья Кудряшова, Андрей Стоянов, Лидия Кузнецова, Алина Тихонова
Описание: Не просто толстая, а очень толстая Дашка Василькова собирается в отпуск. В отпуске она собирается читать детективы, заедая их гамбургерами и тортами. Вместе с ней в отпуск идет ее подруга Машка, одержимая идеей похудения и замужества Дашки. Сама Дашка худеть не очень-то собирается. Но, уступая настойчивости Машки, ходит с ней на тренинги, занятия по фитнесу. И даже пытается сесть на диету, но быстро срывается, несмотря на то, что ей очень нравится сосед Стас, похожий на Брэда Питта. Однажды к Дашке приходит ее сестра Алка и просит приютить недели на две племянника - Ваньку, поскольку Алке надо съездить в Сочи устроить личную жизнь. Дашка соглашается, и с этого дня ее спокойной жизни приходит конец...

Сэмпл: http://multi-up.com/860685
Качество видео: WEB-DLRip
Формат видео: AVI
Видео: XviD, 720x400, 1968 Кбит/с, 25 fps
Аудио: AC3, 192 Кбит/с, 2 ch, 44,1 КГц

MediaInfo

Общее
Полное имя : E:\Vanka_2013.WEB-DLRip.avi
Формат : AVI
Формат/Информация : Audio Video Interleave
Размер файла : 1,37 Гбайт
Продолжительность : 1 ч. 30 м.
Общий поток : 2170 Кбит/сек
Программа кодирования : VirtualDubMod 1.5.10.3 | www.virtualdub-fr.org || (build 2550/release)
Библиотека кодирования : VirtualDubMod build 2550/release
Видео
Идентификатор : 0
Формат : MPEG-4 Visual
Профиль формата : Advanced Simple@L5
Параметр BVOP формата : 1
Параметр QPel формата : Нет
Параметр GMC формата : Без точки перехода
Параметр матрицы формата : Default (MPEG)
Идентификатор кодека : XVID
Идентификатор кодека/Подсказка : XviD
Продолжительность : 1 ч. 30 м.
Битрейт : 1968 Кбит/сек
Ширина : 720 пикселей
Высота : 400 пикселей
Соотношение сторон : 16:9
Частота кадров : 25,000 кадров/сек
Цветовое пространство : YUV
Субдискретизация насыщенности : 4:2:0
Битовая глубина : 8 бит
Тип развёртки : Прогрессивная
Метод сжатия : С потерями
Бит/(Пиксели*Кадры) : 0.273
Размер потока : 1,24 Гбайт (91%)
Библиотека кодирования : XviD 64
Аудио
Идентификатор : 1
Формат : AC-3
Формат/Информация : Audio Coding 3
Расширение режима : CM (complete main)
Параметр Endianness формата : Big
Идентификатор кодека : 2000
Продолжительность : 1 ч. 30 м.
Вид битрейта : Постоянный
Битрейт : 192 Кбит/сек
Каналы : 2 канала
Расположение каналов : Front: L R
Частота : 44,1 КГц
Битовая глубина : 16 бит
Метод сжатия : С потерями
Размер потока : 124 Мбайт (9%)
Выравнивание : Разделение по промежуткам
Продолжительность промежутка : 40 мс. (1,00 видеокадр)
Время предзагрузки промежутка : 500 мс.

Скриншот c названием фильма

Скриншоты

Скачать

Скачать торрент!

Как скачивать? · Что такое торрент? · Рейтинг и ограничения

Сайт не распространяет и не хранит электронные версии произведений, а лишь предоставляет доступ к создаваемому пользователями каталогу ссылок на торрент-файлы, которые содержат только списки хеш-сумм

[Профиль] [ЛС]
Показать сообщения:    
Ответить на тему

Текущее время: Сегодня 08:09

Часовой пояс: GMT + 4



Вы не можете начинать темы
Вы не можете отвечать на сообщения
Вы не можете редактировать свои сообщения
Вы не можете удалять свои сообщения
Вы не можете голосовать в опросах
Вы не можете прикреплять файлы к сообщениям
Вы не можете скачивать файлы