Крепкий брак (Леонид Мазор) [2012, комедия, мелодрама, DVB]

Ответить на тему
 
Автор Сообщение

user ®

Стаж: 7 лет 7 месяцев

Сообщений: 20008

Пост Пост: #1 от 01-Авг-2013 09:35

[Цитировать]

Крепкий брак
Жанр: лирическая мелодрама
Год выпуска: 2012
Продолжительность: 01:29:26
Режиссёр: Леонид Мазор
В ролях: Юлия Меньшова, Камиль Ларин, Наталья Ноздрина, Андрей Межулис, Ирина Бякова, Павел Ворожцов, Яна Аносова, Максим Туранцев, Анна Скиданова
Описание: Выдав замуж свою 20-летнюю дочь, супруги Алексей и Марина вдруг понимают, что в жизненном реестре поставлена последняя галочка: квартира есть, бизнес функционирует, чадо пристроено. Казалось бы, можно уже пожить для себя, но тут муж и жена ссорятся, а потом заключают пари: тот, кто первым будет пойман на адюльтере или попросится назад, в семью, теряет и бизнес, и квартиру. В начавшейся войне в ход идет все – даже инструкция по соблазнению собственного мужа, которую супруга коварно отдает секретарше своего благоверного. Сможет ли муж сопротивляться подобной атаке?
Доп. информация: Запись потока *.ts со спутника EUTELSAT, ремукс в *.mpg программой VideoReDo.
Качество видео: DVB
Формат видео: MPEG-PS
Видео: MPEG Video, 720x576 (4 : 3), 25,000 кадров/сек, 3 850 Кбит/сек
Аудио: MPEG Audio, 48,0 КГц, 192 Кбит/сек, 2 канала

Сравнение

[url=http://***/forum/viewtopic.php?t=4262903]http://***/forum/viewtopic.php?t=4262903[/url]
http://screenshotcomparison.com/comparison/21734/

MediaInfo

General
Complete name : E:\Torrent\КРЕПКИЙ БРАК\КРЕПКИЙ БРАК.mpg
Format : MPEG-PS
File size : 2.58 GiB
Duration : 1h 29mn
Overall bit rate mode : Variable
Overall bit rate : 4 124 Kbps
Video
ID : 224 (0xE0)
Format : MPEG Video
Format version : Version 2
Format profile : Main@Main
Format settings, BVOP : Yes
Format settings, Matrix : Custom
Format settings, GOP : M=3, N=12
Duration : 1h 29mn
Bit rate mode : Variable
Bit rate : 3 850 Kbps
Maximum bit rate : 6 000 Kbps
Width : 720 pixels
Height : 576 pixels
Display aspect ratio : 4:3
Frame rate : 25.000 fps
Standard : PAL
Color space : YUV
Chroma subsampling : 4:2:0
Bit depth : 8 bits
Scan type : Interlaced
Scan order : Top Field First
Compression mode : Lossy
Bits/(Pixel*Frame) : 0.371
Stream size : 2.40 GiB (93%)
Audio
ID : 192 (0xC0)
Format : MPEG Audio
Format version : Version 1
Format profile : Layer 2
Duration : 1h 29mn
Bit rate mode : Constant
Bit rate : 192 Kbps
Channel(s) : 2 channels
Sampling rate : 48.0 KHz
Compression mode : Lossy
Stream size : 123 MiB (5%)

Скриншот c названием фильма

Скачать

Скачать торрент!

Как скачивать? · Что такое торрент? · Рейтинг и ограничения

Сайт не распространяет и не хранит электронные версии произведений, а лишь предоставляет доступ к создаваемому пользователями каталогу ссылок на торрент-файлы, которые содержат только списки хеш-сумм

[Профиль] [ЛС]
Показать сообщения:    
Ответить на тему

Текущее время: Сегодня 16:09

Часовой пояс: GMT + 4



Вы не можете начинать темы
Вы не можете отвечать на сообщения
Вы не можете редактировать свои сообщения
Вы не можете удалять свои сообщения
Вы не можете голосовать в опросах
Вы не можете прикреплять файлы к сообщениям
Вы не можете скачивать файлы