Трио (Александр Прошкин) [2002, криминальная драма, трагикомедия, роуд-муви, DVDRip]

Ответить на тему
 
Автор Сообщение

user ®

Стаж: 7 лет 7 месяцев

Сообщений: 20008

Пост Пост: #1 от 01-Авг-2013 09:35

[Цитировать]

Трио
Жанр: криминальная драма, трагикомедия, роуд-муви
Год выпуска: 2002
Продолжительность: 01:42:00
Режиссёр: Александр Прошкин
В ролях: Андрей Панин, Михаил Пореченков, Мария Звонарёва, Игорь Гордин, Азиз Бейшеналиев, Ирина Лосева, Зоя Буряк, Александр Гришин, Валерий Иваков, Александр Журман, Алексей Ванин, Юрий Лахин, Анатолий Бледный, Игорь Данюшин, Олег Малахов, Александр Завьялов, Виталий Жигалин, Игорь Рудаков, Сергей Назаренко, Алексей Елхимов, Прохор Зикора, Олег Борисенко, Юрий Лагута, Вячеслав Бухаров, Артур Литвинов
Описание: Лето 1999 года. По бесконечным дорогам российской глубинки колесит фура со вполне обычным трио на борту: Николай и Алексей - напарники, шоферы-дальнобойщики, Марина - проститутка, "одна на двоих аж до самого Оренбурга". И груз они перевозят тоже вполне, по их словам, обычный - набита, мол, фура под завязку дорогостоящими компьютерами и видеотехникой. О чём и сообщается всем встречным-поперечным при каждом удобном случае. Однако, имеется некоторая странность: на самом деле в кузове фуры - пусто, никакого груза в ней нет...
Доп. информация:
Сценарий: Александр Миндадзе
Оператор: Сергей Астахов
Художник: Алим Матвейчук
Композитор: Владимир Мартынов
Награды: приз за лучшую мужскую роль (Андрей Панин), специальный приз жюри за режиссуру (Александр Прошкин) на кинофестивале "Окно в Европу" (Выборг, 2003); премия "Золотой овен-2003" за лучшую женскую роль (Мария Звонарева)
Ограничения на просмотр: детям до 12 лет просмотр фильма разрешен в сопровождении родителей

О звуке и исходнике

Исходный DVD (как и многие другие издания отечественных фильмов в формате NTSC) представляет собой некачественный трансфер из PAL в NTSC с переменным порядком полей и дублированными кадрами. Обычный деинтерлейс и обратный телесин в таких случаях не помогают, спасает только снижение частоты кадров до исходных 25 fps, что и проделано в данном рипе.
Также в исходнике имеется бракованная шестиканальная аудиодорожка: на протяжении всего фильма во всех каналах с периодичностью примерно в каждые 2 секунды есть "дыры", в которых звук полностью отсустствует. Для данного рипа дорожка переконвертирована в стерео (поскольку дефекты легче исправлять в двух каналах, нежели в шести), брак аудио "вылечен" - http://screenshotcomparison.com/comparison/21854
Качество видео: DVDRip
Формат видео: AVI
Видео: 704x384 (1.83:1), 25 fps, XviD 1.2.1, 1820 kbps avg, 0.27 bit/pixel
Аудио: 48 kHz, AC3 Dolby Digital, 2/0 (L,R) ch, 224 kbps

MediaInfo

Полное имя : Trio.avi
Формат : AVI
Формат/Информация : Audio Video Interleave
Размер файла : 1,46 Гбайт
Продолжительность : 1 ч. 42 м.
Общий поток : 2054 Кбит/сек
Программа кодирования : VirtualDubMod 1.5.10.3 (build 2550/release)
Библиотека кодирования : VirtualDubMod build 2550/release
Видео
Идентификатор : 0
Формат : MPEG-4 Visual
Профиль формата : Advanced Simple@L5
Параметр BVOP формата : 2
Параметр QPel формата : Нет
Параметр GMC формата : Без точки перехода
Параметр матрицы формата : Выборочная
Идентификатор кодека : XVID
Идентификатор кодека/Подсказка : XviD
Продолжительность : 1 ч. 42 м.
Битрейт : 1820 Кбит/сек
Ширина : 704 пикселя
Высота : 384 пикселя
Соотношение сторон : 1,85:1
Частота кадров : 25,000 кадров/сек
Цветовое пространство : YUV
Субдискретизация насыщенности : 4:2:0
Битовая глубина : 8 бит
Тип развёртки : Прогрессивная
Метод сжатия : С потерями
Бит/(Пиксели*Кадры) : 0.269
Размер потока : 1,30 Гбайт (89%)
Библиотека кодирования : XviD 1.2.1 (UTC 2008-12-04)
Аудио
Идентификатор : 1
Формат : AC-3
Формат/Информация : Audio Coding 3
Расширение режима : CM (complete main)
Параметр Endianness формата : Big
Идентификатор кодека : 2000
Продолжительность : 1 ч. 42 м.
Вид битрейта : Постоянный
Битрейт : 224 Кбит/сек
Каналы : 2 канала
Расположение каналов : Front: L R
Частота : 48,0 КГц
Битовая глубина : 16 бит
Метод сжатия : С потерями
Размер потока : 163 Мбайт (11%)
Выравнивание : Разделение по промежуткам
Продолжительность промежутка : 40 мс. (1,00 видеокадр)
Время предзагрузки промежутка : 500 мс.

Скриншот c названием фильма

Скриншоты

Скачать

Скачать торрент!

Как скачивать? · Что такое торрент? · Рейтинг и ограничения

Сайт не распространяет и не хранит электронные версии произведений, а лишь предоставляет доступ к создаваемому пользователями каталогу ссылок на торрент-файлы, которые содержат только списки хеш-сумм

[Профиль] [ЛС]
Показать сообщения:    
Ответить на тему

Текущее время: Сегодня 04:10

Часовой пояс: GMT + 4



Вы не можете начинать темы
Вы не можете отвечать на сообщения
Вы не можете редактировать свои сообщения
Вы не можете удалять свои сообщения
Вы не можете голосовать в опросах
Вы не можете прикреплять файлы к сообщениям
Вы не можете скачивать файлы