Фобос. Клуб страха (Олег Асадулин) [2010, ужасы, триллер, DVDRip]

Ответить на тему
 
Автор Сообщение

user ®

Стаж: 7 лет 7 месяцев

Сообщений: 20008

Пост Пост: #1 от 01-Авг-2013 09:35

[Цитировать]

Фобос. Клуб страха
Жанр: ужасы, триллер
Год выпуска: 2010
Продолжительность: 01:18:32
Режиссер: Олег Асадулин
В ролях: Пётр Фёдоров, Петр Томашевский, Агния Кузнецова, Алексей Воробьев, Рената Пиотровски, Татьяна Космачева, Тимофей Каратаев
Описание: Дождливый летний вечер. В строящийся в подвале бывшего бомбоубежища ночной клуб «Фобос» съезжаются молодые люди, у каждого на это есть своя причина. Ребята из разных слоев общества: кто-то учится, кто-то бездельничает, кто-то трудится на этой стройке, а кто-то прожигает папины деньги.
Поначалу встреча не предвещает ничего плохого. Однако происходит аварийное закрытие дверей бомбоубежища, и свет в помещении гаснет. Невольные узники не осознают всей опасности происшедшего — они шутят, пугают друг друга, но вскоре выясняется, что их мобильные телефоны вне зоны действия сети, а о своем намерении поехать в клуб они никому не сообщили…
Доп.информация:

Сэмпл
Качество видео: DVDRip
Формат видео: AVI
Видео: 720x304 (2.37:1), 25 fps, XviD build 73 ~2186 kbps avg, 0.40 bit/pixel
Аудио: 48 kHz, AC3 Dolby Digital, 3/2 (L,C,R,l,r) + LFE ch, ~448 kbps

MediaInfo

Формат : AVI
Формат/Информация : Audio Video Interleave
Размер файла : 1,45 Гбайт
Продолжительность : 1 ч. 18 м.
Общий поток : 2645 Кбит/сек
Программа кодирования : VirtualDubMod 1.5.10.3 | www.virtualdub-fr.org || (build 2550/release)
Библиотека кодирования : VirtualDubMod build 2550/release
Видео
Идентификатор : 0
Формат : MPEG-4 Visual
Профиль формата : Advanced Simple@L5
Параметр BVOP формата : 1
Параметр QPel формата : Нет
Параметр GMC формата : Без точки перехода
Параметр матрицы формата : Выборочная
Идентификатор кодека : XVID
Идентификатор кодека/Подсказка : XviD
Продолжительность : 1 ч. 18 м.
Битрейт : 2187 Кбит/сек
Ширина : 720 пикселей
Высота : 304 пикселя
Соотношение сторон : 2,35:1
Частота кадров : 25,000 кадров/сек
Цветовое пространство : YUV
Субдискретизация насыщенности : 4:2:0
Битовая глубина : 8 бит
Тип развёртки : Прогрессивная
Метод сжатия : С потерями
Бит/(Пиксели*Кадры) : 0.400
Размер потока : 1,20 Гбайт (83%)
Библиотека кодирования : XviD 73
Аудио
Идентификатор : 1
Формат : AC-3
Формат/Информация : Audio Coding 3
Расширение режима : CM (complete main)
Параметр Endianness формата : Big
Идентификатор кодека : 2000
Продолжительность : 1 ч. 18 м.
Вид битрейта : Постоянный
Битрейт : 448 Кбит/сек
Каналы : 6 каналов
Расположение каналов : Front: L C R, Side: L R, LFE
Частота : 48,0 КГц
Битовая глубина : 16 бит
Метод сжатия : С потерями
Размер потока : 252 Мбайт (17%)
Выравнивание : Разделение по промежуткам
Продолжительность промежутка : 40 мс. (1,00 видеокадр)
Время предзагрузки промежутка : 500 мс.

Скриншоты

Сравнение

[url=http://***/forum/viewtopic.php?t=3758042]http://***/forum/viewtopic.php?t=3758042[/url]
http://screenshotcomparison.com/comparison/22033
+
MediaInfo конкурента:
Параметр BVOP формата : 3
Параметр QPel формата : Да
Параметр GMC формата : 3 точки перехода
Скачать

Скачать торрент!

Как скачивать? · Что такое торрент? · Рейтинг и ограничения

Сайт не распространяет и не хранит электронные версии произведений, а лишь предоставляет доступ к создаваемому пользователями каталогу ссылок на торрент-файлы, которые содержат только списки хеш-сумм

[Профиль] [ЛС]
Показать сообщения:    
Ответить на тему

Текущее время: Сегодня 06:13

Часовой пояс: GMT + 4



Вы не можете начинать темы
Вы не можете отвечать на сообщения
Вы не можете редактировать свои сообщения
Вы не можете удалять свои сообщения
Вы не можете голосовать в опросах
Вы не можете прикреплять файлы к сообщениям
Вы не можете скачивать файлы