Крепкий брак (Леонид Мазор) [2012 г., Лирическая мелодрама, SATRip]

Ответить на тему
 
Автор Сообщение

user ®

Стаж: 7 лет 7 месяцев

Сообщений: 20008

Пост Пост: #1 от 01-Авг-2013 09:34

[Цитировать]

Крепкий бракГод выпуска: 2012.
Страна: Россия .
Киностудия: Амедиа.
Жанр: Лирическая мелодрама.
Продолжительность: 01:29:26.
Режиссер: Леонид Мазор.
Авторы сценария: Михаил Марфин, Леонид Мазор.
Оператор: Ростислав Пирумов.
Композитор: Яков Перадзе.
Художник: Александр Арефьев.
В ролях:
Юлия Меньшова, Камиль Ларин, Наталья Ноздрина, Андрей Межулис, Ирина Бякова, Павел Ворожцов, Яна Аносова, Максим Туранцев, Анна Скиданова.
Описание:
Выдав замуж свою 20-летнюю дочь, супруги Алексей и Марина вдруг понимают, что в жизненном реестре поставлена последняя галочка: квартира есть, бизнес функционирует, чадо пристроено. Казалось бы, можно уже пожить для себя, но тут муж и жена ссорятся, а потом заключают пари: тот, кто первым будет пойман на адюльтере или попросится назад, в семью, теряет и бизнес, и квартиру. В начавшейся войне в ход идет все – даже инструкция по соблазнению собственного мужа, которую супруга коварно отдает секретарше своего благоверного. Сможет ли муж сопротивляться подобной атаке?..
Доп. информация:
Премьера: 25 ноября 2012 года (Интер, Украина), 1 мая 2013 года (Россия-1).


Качество: SATRip
Формат: AVI
Видео: 640x352 (1.82:1), 25 fps, XviD build 73 ~1023 kbps avg, 0.18 bit/pixel
Аудио: 48 kHz, MPEG Layer 3, 2 ch, ~128.00 kbps avg

Отчет MediaInfo

General
Complete name : E:\111111\Krepkij.brak.2012.XviD.SATRip_1.44.avi
Format : AVI
Format/Info : Audio Video Interleave
File size : 1.44 GiB
Duration : 1h 29mn
Overall bit rate : 2 310 Kbps
Writing application : VirtualDubMod 1.5.10.3 | www.virtualdub-fr.org || (build 2550/release)
Writing library : VirtualDubMod build 2550/release
Video
ID : 0
Format : MPEG-4 Visual
Format profile : Advanced Simple@L5
Format settings, BVOP : 1
Format settings, QPel : No
Format settings, GMC : No warppoints
Format settings, Matrix : Custom
Codec ID : DX50
Codec ID/Hint : DivX 5
Duration : 1h 29mn
Bit rate : 2 108 Kbps
Width : 720 pixels
Height : 400 pixels
Display aspect ratio : 16:9
Frame rate : 25.000 fps
Color space : YUV
Chroma subsampling : 4:2:0
Bit depth : 8 bits
Scan type : Progressive
Compression mode : Lossy
Bits/(Pixel*Frame) : 0.293
Stream size : 1.32 GiB (91%)
Writing library : XviD 73
Audio
ID : 1
Format : AC-3
Format/Info : Audio Coding 3
Mode extension : CM (complete main)
Format settings, Endianness : Big
Codec ID : 2000
Duration : 1h 29mn
Bit rate mode : Constant
Bit rate : 192 Kbps
Channel(s) : 2 channels
Channel positions : Front: L R
Sampling rate : 48.0 KHz
Bit depth : 16 bits
Compression mode : Lossy
Stream size : 123 MiB (8%)
Alignment : Split accross interleaves
Interleave, duration : 40 ms (1.00 video frame)
Interleave, preload duration : 500 ms

Скриншот с названием

Скриншоты

Альтернативный хост

Скачать

Скачать торрент!

Как скачивать? · Что такое торрент? · Рейтинг и ограничения

Сайт не распространяет и не хранит электронные версии произведений, а лишь предоставляет доступ к создаваемому пользователями каталогу ссылок на торрент-файлы, которые содержат только списки хеш-сумм

[Профиль] [ЛС]
Показать сообщения:    
Ответить на тему

Текущее время: Сегодня 00:09

Часовой пояс: GMT + 4



Вы не можете начинать темы
Вы не можете отвечать на сообщения
Вы не можете редактировать свои сообщения
Вы не можете удалять свои сообщения
Вы не можете голосовать в опросах
Вы не можете прикреплять файлы к сообщениям
Вы не можете скачивать файлы