Жених по объявлению (Владимир Чубриков) [2012, Мелодрама, HDTVRip]

Ответить на тему
 
Автор Сообщение

user ®

Стаж: 7 лет 7 месяцев

Сообщений: 20008

Пост Пост: #1 от 01-Авг-2013 09:34

[Цитировать]

Жених по объявлению
Жанр: Мелодрама
Производство: Россия, кинокомпания СОЛИВС
Год выпуска: 2012
Продолжительность: 01:39:05
Субтитры: нет
Режиссёр: Владимир Чубриков
В ролях: Анастасия Заворотнюк, Сергей Астахов, Владимир Стержаков, Сергей Легостаев, Валерий Иваков
Описание: У молодой женщины было все, о чем только можно мечтать в этой жизни: солидный банковский счет, уважение коллег, свой собственный бизнес, который приносил постоянный доход. Единственное, что беспокоило молодую и успешную женщину - отсутствие спутника жизни. Все попытки наладить свою частную жизнь заканчивались провалом: большинство кандидатов в мужья с интересом смотрели на счет в банке, а вовсе не самой женщиной. Устав от бесконечных знакомств, бизнесвумен хотела забросить все попытки найти суженного, но случай все расставил на свои места. В одной из газет была рубрика знакомств. Пролистывая страницы, женщина наткнулась на одно интересное объявление. Неизвестный поэт обещал посвятить все свое существование своей половинке. Ее сердце дрогнуло, и она согласилась на встречу. Эта встреча изменила не только статус холостяка, но и всю жизнь женщины. Затем была слава, предательство и разочарование. Но это было потом, а вначале - Любовь...
Семпл: http://multi-up.com/862412
Качество видео: HDTVRip (исходник HDTV 1080i)
Формат видео: AVI
Видео: 720x400 (1.80:1), 25 fps, XviD build 50 ~1777 kbps avg, 0.25 bit/pixel
Аудио: 48 kHz, AC3 Dolby Digital, 2/0 (L,R) ch, ~192.00 kbps avg
Релиз от:

MediaInfo

General
Complete name : V:\ftp4\Videos\Zhenikh.po.obyavleniyu.2012.XviD.HDTVRip.Files-x.avi
Format : AVI
Format/Info : Audio Video Interleave
File size : 1.37 GiB
Duration : 1h 39mn
Overall bit rate : 1 980 Kbps
Writing application : VirtualDubMod 1.5.10.3 | www.virtualdub-fr.org || (build 2550/release)
Writing library : VirtualDubMod build 2550/release
Video
ID : 0
Format : MPEG-4 Visual
Format profile : Advanced Simple@L5
Format settings, BVOP : 1
Format settings, QPel : No
Format settings, GMC : No warppoints
Format settings, Matrix : Default (H.263)
Codec ID : XVID
Codec ID/Hint : XviD
Duration : 1h 39mn
Bit rate : 1 778 Kbps
Width : 720 pixels
Height : 400 pixels
Display aspect ratio : 16:9
Frame rate : 25.000 fps
Color space : YUV
Chroma subsampling : 4:2:0
Bit depth : 8 bits
Scan type : Progressive
Compression mode : Lossy
Bits/(Pixel*Frame) : 0.247
Stream size : 1.23 GiB (90%)
Writing library : XviD 1.2.1 (UTC 2008-12-04)
Audio
ID : 1
Format : AC-3
Format/Info : Audio Coding 3
Mode extension : CM (complete main)
Format settings, Endianness : Big
Codec ID : 2000
Duration : 1h 39mn
Bit rate mode : Constant
Bit rate : 192 Kbps
Channel(s) : 2 channels
Channel positions : Front: L R
Sampling rate : 48.0 KHz
Bit depth : 16 bits
Compression mode : Lossy
Stream size : 136 MiB (10%)
Alignment : Split accross interleaves
Interleave, duration : 40 ms (1.00 video frame)
Interleave, preload duration : 500 ms

Скриншот c названием фильма

Скриншоты

Скачать

Скачать торрент!

Как скачивать? · Что такое торрент? · Рейтинг и ограничения

Сайт не распространяет и не хранит электронные версии произведений, а лишь предоставляет доступ к создаваемому пользователями каталогу ссылок на торрент-файлы, которые содержат только списки хеш-сумм

[Профиль] [ЛС]
Показать сообщения:    
Ответить на тему

Текущее время: Сегодня 11:42

Часовой пояс: GMT + 4



Вы не можете начинать темы
Вы не можете отвечать на сообщения
Вы не можете редактировать свои сообщения
Вы не можете удалять свои сообщения
Вы не можете голосовать в опросах
Вы не можете прикреплять файлы к сообщениям
Вы не можете скачивать файлы