Мир в другом измерении - Стресс (Михаил Кончакивский) [1993, драма, TVRip, AVC]

Ответить на тему
 
Автор Сообщение

user ®

Стаж: 7 лет 7 месяцев

Сообщений: 20008

Пост Пост: #1 от 01-Авг-2013 09:34

[Цитировать]

Мир в другом измерении - Стресс
Жанр: драма
Год выпуска: 1993
Продолжительность: 1:26:38
Режиссёр: Михаил Кончакивский
В ролях: Алексей Жиров, Татьяна Назарова, Владимир Самойлов, Тамара Сёмина, Татьяна Кречетова, Геннадий Сайфулин, Алексей Колесов, Дмитрий Хаустов
Описание: Главный герой — подросток Юра, взявший на себя вину любимой девушки и осужденный за дорожную аварию. Жестокий быт исправительной колонии, первые трудные месяцы на свободе не смогли истребить в Юре лучшие человеческие качества: чувство собственного достоинства и благородство души.
Сэмпл: http://yadi.sk/d/lFAUNRll4bBHk
Качество видео: TVRip
Формат видео: MKV
Видео: AVC, 704 x 544, 1.294, 24.000 fps, 1 300 Kbps
Аудио: Русский, MP3, 48.0 KHz, 128 Kbps, 2 channels
Дополнительная информация: Этот фильм является продолжением цикла телевизионных фильмов «Мир в другом измерении», куда вошли «Казенный дом» 1989 и «Зона» 1990.

MediaInfo

General
Unique ID : 178157979111650706707689424160697278594 (0x8607FA8ACA30BDA8842A544E765AE082)
Complete name : D:\Торрент\Stress-mir.v.drugom.izmerenii.1993\Stress-mir.v.drugom.izmerenii.1993.mkv
Format : Matroska
Format version : Version 2
File size : 903 MiB
Duration : 1h 26mn
Overall bit rate : 1 457 Kbps
Movie name : Avidemux
Encoded date : UTC 2013-05-06 13:01:28
Writing application : mkvmerge v5.2.1 ('A Far Off Place') built on Jan 7 2012 21:56:27
Writing library : Lavf53.24.0
AUTHOR : Avidemux
Video
ID : 1
Format : AVC
Format/Info : Advanced Video Codec
Format profile : High@L3.0
Format settings, CABAC : Yes
Format settings, ReFrames : 4 frames
Muxing mode : Header stripping
Codec ID : V_MPEG4/ISO/AVC
Duration : 1h 26mn
Bit rate : 1 300 Kbps
Width : 704 pixels
Height : 544 pixels
Display aspect ratio : 1.294
Frame rate mode : Constant
Frame rate : 24.000 fps
Color space : YUV
Chroma subsampling : 4:2:0
Bit depth : 8 bits
Scan type : Progressive
Bits/(Pixel*Frame) : 0.141
Stream size : 805 MiB (89%)
Writing library : x264 core 120 r2120 0c7dab9
Encoding settings : cabac=1 / ref=3 / deblock=1:0:0 / analyse=0x3:0x113 / me=hex / subme=7 / psy=1 / psy_rd=1.00:0.00 / mixed_ref=1 / me_range=16 / chroma_me=1 / trellis=1 / 8x8dct=1 / cqm=0 / deadzone=21,11 / fast_pskip=1 / chroma_qp_offset=-2 / threads=3 / sliced_threads=0 / nr=0 / decimate=1 / interlaced=0 / bluray_compat=0 / constrained_intra=0 / bframes=3 / b_pyramid=2 / b_adapt=1 / b_bias=0 / direct=1 / weightb=1 / open_gop=0 / weightp=2 / keyint=250 / keyint_min=24 / scenecut=40 / intra_refresh=0 / rc_lookahead=40 / rc=crf / mbtree=1 / crf=20.0 / qcomp=0.60 / qpmin=0 / qpmax=51 / qpstep=4 / ip_ratio=1.40 / aq=1:1.00
Default : Yes
Forced : No
Matrix coefficients : SMPTE 240M
Audio
ID : 2
Format : MPEG Audio
Format version : Version 1
Format profile : Layer 3
Muxing mode : Header stripping
Codec ID : A_MPEG/L3
Codec ID/Hint : MP3
Duration : 1h 26mn
Bit rate mode : Constant
Bit rate : 128 Kbps
Channel(s) : 2 channels
Sampling rate : 48.0 KHz
Compression mode : Lossy
Delay relative to video : -42ms
Stream size : 79.3 MiB (9%)
Writing library : LAME3.99r
Encoding settings : -m s -V 4 -q 3 -lowpass 17 -b 128
Default : Yes
Forced : No

Скриншот c названием фильма

Скриншоты




Скачать

Скачать торрент!

Как скачивать? · Что такое торрент? · Рейтинг и ограничения

Сайт не распространяет и не хранит электронные версии произведений, а лишь предоставляет доступ к создаваемому пользователями каталогу ссылок на торрент-файлы, которые содержат только списки хеш-сумм

[Профиль] [ЛС]
Показать сообщения:    
Ответить на тему

Текущее время: Сегодня 20:23

Часовой пояс: GMT + 4



Вы не можете начинать темы
Вы не можете отвечать на сообщения
Вы не можете редактировать свои сообщения
Вы не можете удалять свои сообщения
Вы не можете голосовать в опросах
Вы не можете прикреплять файлы к сообщениям
Вы не можете скачивать файлы