Любовь из пробирки (Илья Хотиненко, Сергей Гиргель) [2013 г., Мелодрама, HDTVRip]

Ответить на тему
 
Автор Сообщение

user ®

Стаж: 7 лет 7 месяцев

Сообщений: 20008

Пост Пост: #1 от 01-Авг-2013 09:34

[Цитировать]

Любовь из пробиркиГод выпуска: 2013.
Страна: Россия .
Киностудия: "Медиапрофсоюз".
Жанр: Мелодрама.
Продолжительность: 01:40:05.
Режиссеры: Илья Хотиненко, Сергей Гиргель.
Автор сценария: Яна Романенко.
Оператор: Григорий Рудаков.
Композиторы: Игорь Щербаков, Климент Шленев.
Художник: Наталья Кабулова.
В ролях:
Яна Шивкова, Юрий Батурин, Сергей Комаров, Ирина Нарбекова, Антон Страшко, Ольга Бурлакова, Анастасия Минаева, Виктор Синайский, Евгений Никитин, Андрей Карако, Валерий Кащеев, Сергей Толстиков, Виктория Жбанкова, Алла Ефимова, Андрей Кривецкий.
Описание:
Нине слегка за 30. Так и не встретив настоящую любовь, она решает «родить для себя». Только найти нормального кандидата на роль «папы» оказывается не так-то просто. На помощь сестре приходит находчивая Галина, которая работает в центре репродуктивной медицины. Она отбирает самый лучший «генофонд» для своего будущего племянника. Донором становится шикарный и… ничего не подозревающий клиент центра - бизнесмен Валерий Уваров. ЭКО проходит удачно, и на свет появляется Стёпка... Спустя шесть лет жизнь героини входит в нормальное русло: у неё подрастает сын, находится высокооплачиваемая работа, но… У судьбы на Нину явно свои планы. Неожиданно она узнает, что ее шеф, сухарь и тиран, оказывается, и есть отец Стёпки...
Доп. информация:
Премьера: 28 апреля 2013 года.

Релиз

Качество: HDTVRip
Формат: AVI
Видео: 720x400 (1.80:1), 25 fps, XviD build 65 ~1904 kbps avg, 0.26 bit/pixel
Аудио: 48 kHz, AC3 Dolby Digital, 2/0 (L,R) ch, ~192 kbps

Отчет MediaInfo

General
Complete name : Ljubov'.iz.probirki.2013.XviD.HDTVRip_1.47.avi
Format : AVI
Format/Info : Audio Video Interleave
File size : 1.47 GiB
Duration : 1h 40mn
Overall bit rate : 2 107 Kbps
Writing application : VirtualDubModRus 1.5.10.2 (build 2542/release)
Writing library : VirtualDubMod build 2542/release
Video
ID : 0
Format : MPEG-4 Visual
Format profile : Advanced Simple@L5
Format settings, BVOP : 2
Format settings, QPel : No
Format settings, GMC : No warppoints
Format settings, Matrix : Custom
Codec ID : XVID
Codec ID/Hint : XviD
Duration : 1h 40mn
Bit rate : 1 905 Kbps
Width : 720 pixels
Height : 400 pixels
Display aspect ratio : 16:9
Frame rate : 25.000 fps
Color space : YUV
Chroma subsampling : 4:2:0
Bit depth : 8 bits
Scan type : Progressive
Compression mode : Lossy
Bits/(Pixel*Frame) : 0.265
Stream size : 1.33 GiB (90%)
Writing library : XviD 65
Audio
ID : 1
Format : AC-3
Format/Info : Audio Coding 3
Mode extension : CM (complete main)
Format settings, Endianness : Big
Codec ID : 2000
Duration : 1h 40mn
Bit rate mode : Constant
Bit rate : 192 Kbps
Channel(s) : 2 channels
Channel positions : Front: L R
Sampling rate : 48.0 KHz
Bit depth : 16 bits
Compression mode : Lossy
Stream size : 137 MiB (9%)
Alignment : Aligned on interleaves
Interleave, duration : 40 ms (1.00 video frame)
Interleave, preload duration : 512 ms

Скриншот с названием

Скриншоты

Альтернативный хост

Скачать

Скачать торрент!

Как скачивать? · Что такое торрент? · Рейтинг и ограничения

Сайт не распространяет и не хранит электронные версии произведений, а лишь предоставляет доступ к создаваемому пользователями каталогу ссылок на торрент-файлы, которые содержат только списки хеш-сумм

[Профиль] [ЛС]
Показать сообщения:    
Ответить на тему

Текущее время: Сегодня 07:53

Часовой пояс: GMT + 4



Вы не можете начинать темы
Вы не можете отвечать на сообщения
Вы не можете редактировать свои сообщения
Вы не можете удалять свои сообщения
Вы не можете голосовать в опросах
Вы не можете прикреплять файлы к сообщениям
Вы не можете скачивать файлы