Ванька (Вячеслав Лавров) [2013, лирическая комедия, WEB-DLRip]

Ответить на тему
 
Автор Сообщение

user ®

Стаж: 7 лет 7 месяцев

Сообщений: 20008

Пост Пост: #1 от 01-Авг-2013 09:34

[Цитировать]

Ванька-
Жанр: лирическая комедия
Год выпуска: 2013
Продолжительность: 01:30:12
Режиссёр: Вячеслав Лавров
В ролях: Мария Бортник, Максим Сапрыкин, Антон Батырев, Александра Назарова, Наталья Дворецкая, Александр Ковалев, Наталья Кудряшова, Андрей Стоянов, Лидия Кузнецова, Алина Тихонова
Описание: Не просто толстая, а очень толстая Дашка Василькова собирается в отпуск. В отпуске она собирается читать детективы, заедая их гамбургерами и тортами. Вместе с ней в отпуск идет ее подруга Машка, одержимая идеей похудения и замужества Дашки. Сама Дашка худеть не очень-то собирается. Но, уступая настойчивости Машки, ходит с ней на тренинги, занятия по фитнесу. И даже пытается сесть на диету, но быстро срывается, несмотря на то, что ей очень нравится сосед Стас, похожий на Брэда Питта. Однажды к Дашке приходит ее сестра Алка и просит приютить недели на две племянника - Ваньку, поскольку Алке надо съездить в Сочи устроить личную жизнь. Дашка соглашается, и с этого дня ее спокойной жизни приходит конец...-Доп. информация:
Раздача от:
Семпл: http://multi-up.com/863610-Качество видео: WEB-DLRip
Формат видео: AVI
Видео: 688x384 (1.79:1), 25 fps, XviD build 73 ~1013 kbps avg, 0.15 bit/pixel
Аудио: 44.100 kHz, MPEG Layer 3, 2 ch, ~128.00 kbps avg

MI

D:\Vanka.2013.WEB-DLRip.[YTN] by dexter lex.avi
General
Complete name : D:\Vanka.2013.WEB-DLRip.[YTN] by dexter lex.avi
Format : AVI
Format/Info : Audio Video Interleave
File size : 743 MiB
Duration : 1h 30mn
Overall bit rate : 1 151 Kbps
Writing application : VirtualDubMod 1.5.10.3 | www.virtualdub-fr.org || (build 2550/release)
Writing library : VirtualDubMod build 2550/release
Video #0
ID : 0
Format : MPEG-4 Visual
Format profile : Advanced Simple@L5
Format settings, BVOP : 1
Format settings, QPel : No
Format settings, GMC : No warppoints
Format settings, Matrix : Custom
Codec ID : XVID
Codec ID/Hint : XviD
Duration : 1h 30mn
Bit rate : 1 013 Kbps
Width : 688 pixels
Height : 384 pixels
Display aspect ratio : 1.79:1
Frame rate : 25.000 fps
Color space : YUV
Chroma subsampling : 4:2:0
Bit depth : 8 bits
Scan type : Progressive
Compression mode : Lossy
Bits/(Pixel*Frame) : 0.153
Stream size : 654 MiB (88%)
Writing library : XviD 73
Audio #1
ID : 1
Format : MPEG Audio
Format version : Version 1
Format profile : Layer 3
Codec ID : 55
Codec ID/Hint : MP3
Duration : 1h 30mn
Bit rate mode : Constant
Bit rate : 128 Kbps
Channel(s) : 2 channels
Sampling rate : 44.1 KHz
Compression mode : Lossy
Stream size : 82.6 MiB (11%)
Alignment : Split accross interleaves
Interleave, duration : 40 ms (1.00 video frame)
Interleave, preload duration : 500 ms
Writing library : LAME3.99r
Encoding settings : -m s -V 4 -q 2 -lowpass 17 -b 128

Скриншот с названием

Скриншоты

Скачать

Скачать торрент!

Как скачивать? · Что такое торрент? · Рейтинг и ограничения

Сайт не распространяет и не хранит электронные версии произведений, а лишь предоставляет доступ к создаваемому пользователями каталогу ссылок на торрент-файлы, которые содержат только списки хеш-сумм

[Профиль] [ЛС]
Показать сообщения:    
Ответить на тему

Текущее время: Сегодня 09:52

Часовой пояс: GMT + 4



Вы не можете начинать темы
Вы не можете отвечать на сообщения
Вы не можете редактировать свои сообщения
Вы не можете удалять свои сообщения
Вы не можете голосовать в опросах
Вы не можете прикреплять файлы к сообщениям
Вы не можете скачивать файлы