Укрощение строптивых (Игорь Каленов) [2009, комедия, BDRip-AVC]

Ответить на тему
 
Автор Сообщение

user ®

Стаж: 7 лет 7 месяцев

Сообщений: 20008

Пост Пост: #1 от 01-Авг-2013 09:34

[Цитировать]

Укрощение строптивых
Страна: Россия
Студия: Никола Фильм, Агентство "Приор"
Жанр: комедия
Год выпуска: 2009
Продолжительность: 01:37:59
Субтитры: нет
Навигация по главам: есть
Режиссер: Игорь Каленов
В ролях: Анна Семенович, Игорь Лифанов, Юлия Галкина, Андрей Федорцов, Андрей Носков, Юрий Кузнецов, Михаил Богдасаров, Чарли, Александр Тютрюмов, Зоя Буряк
Описание: Чумовая блондинка с неотделимыми атрибутами: чихуахуа в сумке и богатым бойфрендом под каблуком, успешный бизнесмен «Мурзик» — владелец частного самолёта в сопровождении подружки-модели летят в Ниццу, а попадают в Тайгу. Тайга — это не лазурный берег с яхтами и закрытыми вечеринками, не жаркое сафари на джипах и плясками с аборигенами. Выращенным в тепличных условиях яппи и их капризным подружкам будет устроена проверка суровым русским «отдыхом». Бриллиантами и коктейльными платьями здесь никого не покоришь, в ход пойдут «защитная вуаль» от комаров и брюки строгого покроя, а одна из строптивых красавиц останется в лесу наедине с брутальным и немного чокнутым мужиком…

Релиз: fanatus
Качество видео: BDRip (AVC)
Исходник: Blu-Ray 1080p
Контейнер: MKV
Видео: MPEG-4 AVC, 2738 kbps , 1056x448 (2.35:1), 23.976 fps, 0.241 bit/pixel
Аудио: AC3, 6 ch, 48 kHz, 448 kbps

MediaInfo

General
Unique ID : 187509657328054765270734480939964663819 (0x8D110BE047A4A7C2AC67B234467B880B)
Complete name : D:\Ukroshhenie.stroptivyh.2009.x264.BDRip.(AVC).fanatus.mkv
Format : Matroska
Format version : Version 2
File size : 2.18 GiB
Duration : 1h 38mn
Overall bit rate : 3 187 Kbps
Movie name : Ukroshchenie stroptivykh (2009) - fanatus
Encoded date : UTC 2013-05-06 17:03:26
Writing application : mkvmerge v3.4.0 ('Rapunzel') сборка от May 15 2010 09:38:20
Writing library : libebml v0.8.0 + libmatroska v0.9.0
Video
ID : 1
Format : AVC
Format/Info : Advanced Video Codec
Format profile : High@L4.1
Format settings, CABAC : Yes
Format settings, ReFrames : 10 frames
Codec ID : V_MPEG4/ISO/AVC
Duration : 1h 38mn
Bit rate : 2 738 Kbps
Width : 1 056 pixels
Height : 448 pixels
Display aspect ratio : 2.35:1
Frame rate : 23.976 fps
Color space : YUV
Chroma subsampling : 4:2:0
Bit depth : 8 bits
Scan type : Progressive
Bits/(Pixel*Frame) : 0.241
Stream size : 1.83 GiB (84%)
Title : Ukroshchenie stroptivykh (2009)
Writing library : x264 core 132 r2309 3b1f1f7
Encoding settings : cabac=1 / ref=10 / deblock=1:-2:-2 / analyse=0x3:0x113 / me=tesa / subme=11 / psy=1 / psy_rd=0.90:0.00 / mixed_ref=1 / me_range=48 / chroma_me=1 / trellis=2 / 8x8dct=1 / cqm=0 / deadzone=21,11 / fast_pskip=0 / chroma_qp_offset=-2 / threads=16 / lookahead_threads=3 / sliced_threads=0 / nr=0 / decimate=0 / interlaced=0 / bluray_compat=0 / constrained_intra=0 / bframes=12 / b_pyramid=2 / b_adapt=2 / b_bias=0 / direct=3 / weightb=1 / open_gop=0 / weightp=2 / keyint=240 / keyint_min=23 / scenecut=40 / intra_refresh=0 / rc_lookahead=240 / rc=2pass / mbtree=0 / bitrate=2738 / ratetol=1.0 / qcomp=0.65 / qpmin=0 / qpmax=69 / qpstep=4 / cplxblur=20.0 / qblur=0.5 / vbv_maxrate=50000 / vbv_bufsize=62500 / nal_hrd=none / ip_ratio=1.40 / pb_ratio=1.30 / aq=1:0.85
Language : Russian
Default : Yes
Forced : No
Color primaries : BT.709-5, BT.1361, IEC 61966-2-4, SMPTE RP177
Transfer characteristics : BT.709-5, BT.1361
Matrix coefficients : BT.709-5, BT.1361, IEC 61966-2-4 709, SMPTE RP177
Audio
ID : 2
Format : AC-3
Format/Info : Audio Coding 3
Mode extension : CM (complete main)
Format settings, Endianness : Big
Codec ID : A_AC3
Duration : 1h 38mn
Bit rate mode : Constant
Bit rate : 448 Kbps
Channel(s) : 6 channels
Channel positions : Front: L C R, Side: L R, LFE
Sampling rate : 48.0 KHz
Bit depth : 16 bits
Compression mode : Lossy
Stream size : 314 MiB (14%)
Title : Original
Language : Russian
Default : Yes
Forced : No
Menu
00:00:00.000 : en:Chapter 01
00:07:31.200 : en:Chapter 02
00:13:28.307 : en:Chapter 03
00:19:50.147 : en:Chapter 04
00:25:57.138 : en:Chapter 05
00:32:12.639 : en:Chapter 06
00:39:22.526 : en:Chapter 07
00:45:41.071 : en:Chapter 08
00:55:17.105 : en:Chapter 09
01:00:41.846 : en:Chapter 10
01:05:05.902 : en:Chapter 11
01:10:44.073 : en:Chapter 12
01:15:12.925 : en:Chapter 13
01:22:15.472 : en:Chapter 14
01:28:56.289 : en:Chapter 15
01:35:47.032 : en:Chapter 16
01:37:59.915 : en:Chapter 17

x264 [info]

-[NoImage] raw [info]: 1056x448p 1:1 @ 24000/1001 fps (cfr)
-[NoImage] x264 [info]: using SAR=1/1
-[NoImage] x264 [info]: using cpu capabilities: MMX2 SSE2Fast SSSE3 SSE4.2 AVX
-[NoImage] x264 [info]: profile High, level 4.1
-[NoImage]
-[NoImage] x264 [info]: frame I:968 Avg QP:17.22 size: 85392
-[NoImage] x264 [info]: frame P:37576 Avg QP:20.76 size: 27669
-[NoImage] x264 [info]: frame B:102435 Avg QP:22.99 size: 8682
-[NoImage] x264 [info]: consecutive B-frames: 4.2% 4.8% 12.2% 37.6% 17.1% 20.1% 2.3% 0.7% 0.4% 0.1% 0.1% 0.1% 0.3%
-[NoImage] x264 [info]: mb I I16..4: 3.7% 67.7% 28.6%
-[NoImage] x264 [info]: mb P I16..4: 0.5% 8.1% 1.8% P16..4: 33.1% 36.4% 15.6% 0.0% 0.0% skip: 4.5%
-[NoImage] x264 [info]: mb B I16..4: 0.1% 1.1% 0.2% B16..8: 31.3% 21.5% 4.5% direct: 6.0% skip:35.3% L0:36.2% L1:42.2% BI:21.6%
-[NoImage] x264 [info]: 8x8 transform intra:76.3% inter:59.7%
-[NoImage] x264 [info]: direct mvs spatial:98.1% temporal:1.9%
-[NoImage] x264 [info]: coded y,uvDC,uvAC intra: 90.1% 88.0% 64.2% inter: 27.9% 20.8% 8.6%
-[NoImage] x264 [info]: i16 v,h,dc,p: 46% 12% 5% 36%
-[NoImage] x264 [info]: i8 v,h,dc,ddl,ddr,vr,hd,vl,hu: 10% 9% 5% 9% 14% 14% 14% 13% 14%
-[NoImage] x264 [info]: i4 v,h,dc,ddl,ddr,vr,hd,vl,hu: 12% 9% 5% 8% 15% 15% 13% 11% 12%
-[NoImage] x264 [info]: i8c dc,h,v,p: 37% 22% 21% 19%
-[NoImage] x264 [info]: Weighted P-Frames: Y:2.1% UV:1.0%
-[NoImage] x264 [info]: ref P L0: 51.5% 15.8% 14.1% 4.7% 3.8% 2.8% 2.6% 1.5% 1.5% 1.4% 0.3% 0.0%
-[NoImage] x264 [info]: ref B L0: 81.5% 8.7% 3.9% 1.9% 1.3% 1.1% 0.9% 0.4% 0.3%
-[NoImage] x264 [info]: ref B L1: 94.4% 5.6%
-[NoImage] x264 [info]: kb/s:2736.95
-[NoImage] encoded 140979 frames, 3.47 fps, 2736.95 kb/s

Скриншот c названием фильма

Скачать

Скачать торрент!

Как скачивать? · Что такое торрент? · Рейтинг и ограничения

Сайт не распространяет и не хранит электронные версии произведений, а лишь предоставляет доступ к создаваемому пользователями каталогу ссылок на торрент-файлы, которые содержат только списки хеш-сумм

[Профиль] [ЛС]
Показать сообщения:    
Ответить на тему

Текущее время: Сегодня 12:15

Часовой пояс: GMT + 4



Вы не можете начинать темы
Вы не можете отвечать на сообщения
Вы не можете редактировать свои сообщения
Вы не можете удалять свои сообщения
Вы не можете голосовать в опросах
Вы не можете прикреплять файлы к сообщениям
Вы не можете скачивать файлы