Подпоручикъ Ромашовъ / Подпоручик Ромашов (Игорь Черницкий) [2012, драма, SATRip]

Ответить на тему
 
Автор Сообщение

user ®

Стаж: 7 лет 7 месяцев

Сообщений: 20008

Пост Пост: #1 от 01-Авг-2013 09:34

[Цитировать]

Подпоручикъ Ромашовъ / Подпоручик Ромашов
Жанр: драма
Год выпуска: 2012
Продолжительность: 02:18:40
Режиссёр: Игорь Черницкий
В ролях: Анатолий Просалов, Алёна Бабенко, Богдан Ступка, Владимир Гостюхин, Александр Михайлов, Игорь Черницкий, Евгения Дмитриева, Георгий Штиль, Захар Хунгуреев, Дмитрий Муляр, Андрей Харитонов, Юрий Грубник, Владимир Овчаров, Владимир Капустин, Игорь Павлов, Тимофей Ермолин, Григорий Антипенко, Олег Долин, Денис Надточий, Елизавета Боярская, Сергей Соболев, Сергей Ражук, Владимир Жеребцов, Антон Сёмкин, Наталья Тетенова, Амбарцум Симонянц, Сергей Потапов, Людмила Мальцева, Светлана Суханова, Анатолий Басин, Николай Федорцов, Александр Плужник, Вадим Сквирский, Артем Кондрашов, Ирина Барская, Даша Злыгостева, Дарья Барская
Описание: Подпоручик Ромашов еще ничего не успел совершить в жизни, не сделал военной карьеры. Но это не слабый, мятущийся, мягкотелый интеллигент, а, как убедительно показано в картине, незаурядный человек, яркая, талантливая личность. Он поднимает голос в защиту бесправного солдата, выступает против консервативных порядков в армии, защищает честь любимой женщины и готов, если надо, умереть за нее...
Доп. информация: По мотивам повести А.И.Куприна "Поединок".
Семпл: http://multi-up.com/864149
Качество видео: SATRip
Формат видео: AVI
Видео: XviD, 720x400, 2021 Kb/s, 25 fps
Аудио: MP3, 2 ch, 192 kbps, 48 KHz

MediaInfo

Общее
Полное имя : E:\Podporuchik.Romaschov_2012.SATRip.avi
Формат : AVI
Формат/Информация : Audio Video Interleave
Профиль формата : OpenDML
Размер файла : 2,15 Гбайт
Продолжительность : 2 ч. 18 м.
Общий поток : 2220 Кбит/сек
Программа кодирования : VirtualDubMod 1.5.4.1 (build 2178/release)
Библиотека кодирования : VirtualDubMod build 2178/release
Видео
Идентификатор : 0
Формат : MPEG-4 Visual
Профиль формата : Advanced Simple@L5
Параметр BVOP формата : 1
Параметр QPel формата : Нет
Параметр GMC формата : Без точки перехода
Параметр матрицы формата : Выборочная
Идентификатор кодека : XVID
Идентификатор кодека/Подсказка : XviD
Продолжительность : 2 ч. 18 м.
Битрейт : 2019 Кбит/сек
Ширина : 720 пикселей
Высота : 400 пикселей
Соотношение сторон : 16:9
Частота кадров : 25,000 кадров/сек
Цветовое пространство : YUV
Субдискретизация насыщенности : 4:2:0
Битовая глубина : 8 бит
Тип развёртки : Прогрессивная
Метод сжатия : С потерями
Бит/(Пиксели*Кадры) : 0.280
Размер потока : 1,96 Гбайт (91%)
Библиотека кодирования : XviD 64
Аудио
Идентификатор : 1
Формат : MPEG Audio
Версия формата : Version 1
Профиль формата : Layer 3
Режим : Joint stereo
Расширение режима : MS Stereo
Идентификатор кодека : 55
Идентификатор кодека/Подсказка : MP3
Продолжительность : 2 ч. 18 м.
Вид битрейта : Постоянный
Битрейт : 192 Кбит/сек
Каналы : 2 канала
Частота : 48,0 КГц
Метод сжатия : С потерями
Размер потока : 190 Мбайт (9%)
Выравнивание : Соединение по промежуткам
Продолжительность промежутка : 80 мс. (2,00 видеокадра)
Время предзагрузки промежутка : 504 мс.
Библиотека кодирования : LAME3.97
Настройки программы : -m j -V 4 -q 2 -lowpass 18.6 -b 192

Скриншот c названием фильма

Скриншоты

Скачать

Скачать торрент!

Как скачивать? · Что такое торрент? · Рейтинг и ограничения

Сайт не распространяет и не хранит электронные версии произведений, а лишь предоставляет доступ к создаваемому пользователями каталогу ссылок на торрент-файлы, которые содержат только списки хеш-сумм

[Профиль] [ЛС]
Показать сообщения:    
Ответить на тему

Текущее время: Сегодня 07:05

Часовой пояс: GMT + 4



Вы не можете начинать темы
Вы не можете отвечать на сообщения
Вы не можете редактировать свои сообщения
Вы не можете удалять свои сообщения
Вы не можете голосовать в опросах
Вы не можете прикреплять файлы к сообщениям
Вы не можете скачивать файлы