Сверчок за очагом / Сказка о семейном счастье (Леонид Нечаев) [2001, мелодрама, сказка, музыкальный, DVDRip]

Ответить на тему
 
Автор Сообщение

user ®

Стаж: 7 лет 7 месяцев

Сообщений: 20008

Пост Пост: #1 от 01-Авг-2013 09:34

[Цитировать]

Сверчок за очагом / Сказка о семейном счастье
Жанр: мелодрама, сказка, музыкальный
Год выпуска: 2001
Продолжительность: 01:46:51
Режиссёр: Леонид Нечаев
В ролях: Евгений Сидихин, Мила Колесникова, Борис Плотников, Дарья Калмыкова, Сергей Карякин, Татьяна Окуневская, Альберт Филозов, Михаил Филиппов, Оксана Пашина, Виктория Гуцол, Никита Алексеев, Саша Фомичев, Толя Лазин, Денис Станиславский, Алексей Крыченков, Наталья Зуева, Татьяна Тушина, ученый пёс Рикки
Описание: В большой уютный дом, в мир любви и добра, где всё проникнуто музыкой согласия, неожиданно входит некий загадочный странник. Интересно, что в дом его привез сам хозяин - могучий добряк, почтовый возчик Джон, подобравший промерзшего старика на дороге. И в доме поселилась тревога. Чувствуют ее и прелестная хозяйка, Крошка Мэри, и юная нянька Тилли, и невидимый для всех, но постоянно присутствующий добрый дух и хранитель домашнего очага - Сверчок. Тревожатся все, кроме добряка Джона. Но ему "помогут прозреть". Вот тут-то и начнется почти детективная история, которая может привести к ужасной несправедливости...
Доп. информация: По одноименной повести Чарльза Диккенса. Первая роль в кино актрисы Милы Колесниковой.
Сценарий: Галина Арбузова
Оператор: Олег Мартынов
Художник: Владимир Ефимов
Дрессировщица: Ольга Нечаева
Балетмейстеры: Петр Ковалев, Александр Петухов
Композитор: Евгений Крылатов
Тексты песен: Юрий Энтин
Вокал: Лидия Чебоксарова, Дарья Катиба, Кристина Аглинц, Михаил Филиппов, Борис Плотников, Альберт Филозов, Евгений Сидихин
Музыка: ансамбль "Celtic Consort" под управлением Владимира Лазерсона (соло на скрипке - Марианна Тертерян)
Ограничения на просмотр: для любой зрительской аудитории
[/url]

Об исходнике и звуке

Исходный DVD (как и многие другие издания отечественных фильмов в формате NTSC) представляет собой некачественный трансфер из PAL в NTSC с переменным порядком полей и дублированными кадрами. Обычный деинтерлейс и обратный телесин в таких случаях не помогают, спасает только снижение частоты кадров до исходных 25 fps, что и проделано в данном рипе.
На исходном DVD присутствует также значительный рассинхрон видео и аудио.
Чтобы не возникало проблем при проигрывании на бытовых плеерах, задержка аудио производилась не в VirtualDubMod при кодировании, а в готовом рипе при помощи программы delaycut.
Качество видео: DVDRip
Формат видео: AVI
Видео: 688x432 (1.59:1), 25 fps, XviD 65, 1770 kbps avg, 0.24 bit/pixel
Аудио: 48 kHz, AC3 Dolby Digital, 2/0 (L,R) ch, 192 kbps

MediaInfo

Полное имя : Sverchok za ochagom_1.47.avi
Формат : AVI
Формат/Информация : Audio Video Interleave
Размер файла : 1,47 Гбайт
Продолжительность : 1 ч. 46 м.
Общий поток : 1972 Кбит/сек
Программа кодирования : VirtualDubMod 1.5.10.3 (build 2550/release)
Библиотека кодирования : VirtualDubMod build 2550/release
Видео
Идентификатор : 0
Формат : MPEG-4 Visual
Профиль формата : Advanced Simple@L5
Параметр BVOP формата : 2
Параметр QPel формата : Нет
Параметр GMC формата : Без точки перехода
Параметр матрицы формата : Выборочная
Идентификатор кодека : XVID
Идентификатор кодека/Подсказка : XviD
Продолжительность : 1 ч. 46 м.
Битрейт : 1770 Кбит/сек
Ширина : 688 пикселей
Высота : 432 пикселя
Соотношение сторон : 1,593
Частота кадров : 25,000 кадров/сек
Цветовое пространство : YUV
Субдискретизация насыщенности : 4:2:0
Битовая глубина : 8 бит
Тип развёртки : Прогрессивная
Метод сжатия : С потерями
Бит/(Пиксели*Кадры) : 0.238
Размер потока : 1,32 Гбайт (90%)
Библиотека кодирования : XviD 65
Аудио
Идентификатор : 1
Формат : AC-3
Формат/Информация : Audio Coding 3
Расширение режима : CM (complete main)
Параметр Endianness формата : Big
Идентификатор кодека : 2000
Продолжительность : 1 ч. 46 м.
Вид битрейта : Постоянный
Битрейт : 192 Кбит/сек
Каналы : 2 канала
Расположение каналов : Front: L R
Частота : 48,0 КГц
Битовая глубина : 16 бит
Метод сжатия : С потерями
Размер потока : 147 Мбайт (10%)
Выравнивание : Разделение по промежуткам
Продолжительность промежутка : 40 мс. (1,00 видеокадр)
Время предзагрузки промежутка : 500 мс.

Скриншоты c названием фильма и годом выпуска

Скриншоты

Скачать

Скачать торрент!

Как скачивать? · Что такое торрент? · Рейтинг и ограничения

Сайт не распространяет и не хранит электронные версии произведений, а лишь предоставляет доступ к создаваемому пользователями каталогу ссылок на торрент-файлы, которые содержат только списки хеш-сумм

[Профиль] [ЛС]
Показать сообщения:    
Ответить на тему

Текущее время: Сегодня 01:17

Часовой пояс: GMT + 4



Вы не можете начинать темы
Вы не можете отвечать на сообщения
Вы не можете редактировать свои сообщения
Вы не можете удалять свои сообщения
Вы не можете голосовать в опросах
Вы не можете прикреплять файлы к сообщениям
Вы не можете скачивать файлы