Сомнамбула (Алексей Смирнов) [2012, триллер, драма, DVDRip]

Ответить на тему
 
Автор Сообщение

user ®

Стаж: 7 лет 7 месяцев

Сообщений: 20008

Пост Пост: #1 от 01-Авг-2013 09:34

[Цитировать]

Сомнамбула-«Так вот в чём твой секрет...»- Жанр: триллер, драма
Год выпуска: 2012
Продолжительность: 01:18:00-Режиссёр: Алексей Смирнов
В ролях: Сергей Апрельский, Андрей Дементьев, Мария Ясная, Александр Златопольский, Марина Гапченко, Георгий Колтушкин, Сергей Ковалёв, Николай Михайлов, Вера Сибирёва, Мария Ясная-Описание: Фильм основан на истории произошедшей в Интернате для детей сирот в Воронежской области, куда в 1993 году поступил 7-ми летний Андрей Яковлев. Внимание всего Интерната к мальчику приковали странные события, которые происходили с ним почти каждую ночь.
Утром на теле мальчика появлялись ссадины, и царапины. Охрана патрулировала по корпусу каждый час, ночные дежурные не сводили с мальчика глаз — но так ничего и не выяснили. 3 августа 1993 года в спальнях интерната установили камеры видеонаблюдения. То, что запечатлели камеры шокировало сотрудников Интерната и привлекло внимание спецслужб. С виду обычный ребенок, обладающий множеством талантов и перспектив на будущее, поневоле создал огромный ажиотаж вокруг себя, а некоторые факты из его биографии были засекречены. В основу фильма легли секретные файлы, кадры камер видеонаблюдения датированные 1993 годом, а также свидетельства очевидцев.- -Качество видео: DVDRip
Формат видео: AVI
Видео: 640x352 (1.82:1), 25 fps, XviD MPEG-4 ~1197 kbps avg, 0.21 bit/pixel
Аудио: Russian (48 kHz, MPEG Layer 3, 2 ch, ~128.00 kbps avg)

MediaInfo

Общее
Полное имя : F:Somnambula.2012.DVDRip.avi
Формат : AVI
Формат/Информация : Audio Video Interleave
Размер файла : 745 Мбайт
Продолжительность : 1 ч. 17 м.
Общий поток : 1335 Кбит/сек
Название фильма : Somnambula.2012.DVDRip
Режиссёр : Modepido
Программа кодирования : VirtualDubMod 1.5.10.2 (build 2540/release)
Видео
Идентификатор : 0
Формат : MPEG-4 Visual
Профиль формата : Advanced Simple@L5
Параметр BVOP формата : 1
Параметр QPel формата : Нет
Параметр GMC формата : Без точки перехода
Параметр матрицы формата : Выборочная
Идентификатор кодека : DX50
Идентификатор кодека/Подсказка : DivX 5
Продолжительность : 1 ч. 17 м.
Битрейт : 1198 Кбит/сек
Ширина : 640 пикс.
Высота : 352 пикс.
Соотношение сторон : 16:9
Частота кадров : 25,000 кадр/сек
Цветовое пространство : YUV
Подвыборка цветности : 4:2:0
Битовая глубина : 8 бит
Тип развёртки : Прогрессивная
Метод сжатия : С потерями
Бит/(Пиксели*Кадры) : 0.213
Размер потока : 668 Мбайт (90%)
Библиотека кодирования : XviD 64
Аудио
Идентификатор : 1
Формат : MPEG Audio
Версия формата : Version 1
Профиль формата : Layer 3
Режим : Joint stereo
Идентификатор кодека : 55
Идентификатор кодека/Подсказка : MP3
Продолжительность : 1 ч. 17 м.
Вид битрейта : Постоянный
Битрейт : 128 Кбит/сек
Каналы : 2 канала
Частота : 48,0 КГц
Метод сжатия : С потерями
Размер потока : 71,4 Мбайт (10%)
Выравнивание : Соединение по промежуткам
Продолжительность промежутка : 40 мс. (1,00 видеокадр)
Время предзагрузки промежутка : 504 ms

Скриншот c названием фильма

Скриншоты

Скачать

Скачать торрент!

Как скачивать? · Что такое торрент? · Рейтинг и ограничения

Сайт не распространяет и не хранит электронные версии произведений, а лишь предоставляет доступ к создаваемому пользователями каталогу ссылок на торрент-файлы, которые содержат только списки хеш-сумм

[Профиль] [ЛС]
Показать сообщения:    
Ответить на тему

Текущее время: Сегодня 09:49

Часовой пояс: GMT + 4



Вы не можете начинать темы
Вы не можете отвечать на сообщения
Вы не можете редактировать свои сообщения
Вы не можете удалять свои сообщения
Вы не можете голосовать в опросах
Вы не можете прикреплять файлы к сообщениям
Вы не можете скачивать файлы