Любовь в СССР (Карен Шахназаров) [2012, мелодрама, HDRip]

Ответить на тему
 
Автор Сообщение

user ®

Стаж: 7 лет 7 месяцев

Сообщений: 20008

Пост Пост: #1 от 01-Авг-2013 09:34

[Цитировать]

Любовь в СССР- Жанр: мелодрама
Год выпуска: 2012
Продолжительность: 01:31:08-Режиссер:
Карен Шахназаров-В ролях:
Александр Ляпин, Лидия Милюзина, Егор Барановский, Иван Купреенко, Армен Джигарханян, Ольга Тумайкина, Янина Калганова, Велимир Русаков--Описание:
В основе сюжета - классический "любовный треугольник". Сергей и Степан учатся в одном институте и оба влюблены в однокурсницу Людмилу. Чувство соперничества постоянно провоцирует их на участие в разных нелепых историях, в итоге благие намерения оборачиваются ссорами друг с другом и любимой девушкой. Особенно не везет Сергею. Он горяч, импульсивен, бесшабашен - полная противоположность спокойному, внимательному и надежному Степану. Людмиле не просто решиться, а тут еще Сергей назло ей укатил в Гагры с другой девушкой. Когда кураж прошел, и Сергей понял, что ему никто не нужен, кроме Людмилы, он возвращается в Москву, чтобы сделать ей предложение, но, похоже, судьба в очередной раз приготовила ему сюрприз…- -Качество видео: HDRip
Формат видео: AVI
Видео: 640x384 (1.667) / 23.976 fps / XviD build 50 1 003 Kbps (0.170 bit/pixel)
Аудио: 48 kHz / 2 channels / Mp3 , ~128 kbps-

MediaInfo

Complete name : D:\Новая папка\Ljubov.v.SSSR.2012.O.HDRip.avi
Format : AVI
Format/Info : Audio Video Interleave
File size : 744 MiB
Duration : 1h 31mn
Overall bit rate : 1 141 Kbps
Writing application : VirtualDubMod 1.5.10.2 (build 2540/release)
Writing library : VirtualDubMod build 2540/release
Video
ID : 0
Format : MPEG-4 Visual
Format profile : Advanced Simple@L5
Format settings, BVOP : 1
Format settings, QPel : No
Format settings, GMC : No warppoints
Format settings, Matrix : Custom
Codec ID : XVID
Codec ID/Hint : XviD
Duration : 1h 31mn
Bit rate : 1 003 Kbps
Width : 640 pixels
Height : 384 pixels
Display aspect ratio : 1.667
Frame rate : 23.976 fps
Color space : YUV
Chroma subsampling : 4:2:0
Bit depth : 8 bits
Scan type : Progressive
Compression mode : Lossy
Bits/(Pixel*Frame) : 0.170
Stream size : 654 MiB (88%)
Writing library : XviD 1.2.1 (UTC 2008-12-04)
Audio
ID : 1
Format : MPEG Audio
Format version : Version 1
Format profile : Layer 3
Codec ID : 55
Codec ID/Hint : MP3
Duration : 1h 31mn
Bit rate mode : Constant
Bit rate : 128 Kbps
Channel(s) : 2 channels
Sampling rate : 48.0 KHz
Compression mode : Lossy
Stream size : 83.4 MiB (11%)
Alignment : Aligned on interleaves
Interleave, duration : 42 ms (1.00 video frame)
Interleave, preload duration : 504 ms
Writing library : L3.99r
Encoding settings : -m s -V 4 -q 2 -lowpass 17 -b 128

Скриншот с названием фильма

Скриншоты

Скачать

Скачать торрент!

Как скачивать? · Что такое торрент? · Рейтинг и ограничения

Сайт не распространяет и не хранит электронные версии произведений, а лишь предоставляет доступ к создаваемому пользователями каталогу ссылок на торрент-файлы, которые содержат только списки хеш-сумм

[Профиль] [ЛС]
Показать сообщения:    
Ответить на тему

Текущее время: Сегодня 17:44

Часовой пояс: GMT + 4



Вы не можете начинать темы
Вы не можете отвечать на сообщения
Вы не можете редактировать свои сообщения
Вы не можете удалять свои сообщения
Вы не можете голосовать в опросах
Вы не можете прикреплять файлы к сообщениям
Вы не можете скачивать файлы