Там, где есть счастье для меня (Рауф Кубаев) [2013, мелодрама, SATRip]

Ответить на тему
 
Автор Сообщение

user ®

Стаж: 7 лет 7 месяцев

Сообщений: 20008

Пост Пост: #1 от 01-Авг-2013 09:34

[Цитировать]

Там, где есть счастье для меня
Жанр: мелодрама
Год выпуска: 2013
Продолжительность: 01:27:29
Режиссёр: Рауф Кубаев
В ролях: Наталия Антонова, Евгений Сидихин, Сергей Астахов, Олег Масленников-Войтов, Дмитрий Лавров, Анастасия Акатова, Юлия Васильева, Дарья Юрская, Ада Роговцева, Александра Мельник, Сергей Генкин, Евгения Долгова, Ирина Климушкина, Светлана Асафьева, Ирина Сидорова, Галина Ефанова, Ольга Фомина, Виктор Курышев, Никита Кононов, Владимир Смирнов, Олег Новиков, Юрий Сергеев, Петр Рабчевский, Андрей Зубков, Михаил Асанкин
Описание: Надя Степанцова - ответственный руководитель фирмы, с утра до ночи в делах и в одиночку тащит на своих плечах семью. Она давно забыла о семейном счастье. Муж Сергей к ней безучастен и вечно переписывается с кем-то по мобильному, а дочь-подросток Настя то и дело норовит увильнуть от общения с матерью. В свой день рождения Надя понимает, насколько далекими стали родные ей люди, и решает вернуть уют в семью. Вместе с мужем и дочерью она отправляется на дачу, но по дороге попадает в страшную аварию. Очнувшись от комы, Надя узнаёт, что муж и дочь погибли, а ей придется как-то научиться жить дальше...
Доп. информация:
Огромное спасибо posters-ks за предоставленный постер.
Релиз от:
Семпл
Качество видео: SATRip
Формат видео: AVI
Видео: 720x400 (1.80:1), 25 fps, XviD build 50 ~2037 kbps avg, 0.28 bit/pixel
Аудио: 48 kHz, MPEG Layer 3, 2 ch, ~192.00 kbps avg

MediaInfo

General
Complete name : Tam.gde.est.schaste.dlya.menya.2013.SATRip.Files-x.avi
Format : AVI
Format/Info : Audio Video Interleave
File size : 1.37 GiB
Duration : 1h 27mn
Overall bit rate : 2 240 Kbps
Writing application : VirtualDubMod 1.5.10.3 (build 2550/release)
Writing library : VirtualDubMod build 2550/release
Video
ID : 0
Format : MPEG-4 Visual
Format profile : Advanced Simple@L5
Format settings, BVOP : 1
Format settings, QPel : No
Format settings, GMC : No warppoints
Format settings, Matrix : Default (H.263)
Codec ID : XVID
Codec ID/Hint : XviD
Duration : 1h 27mn
Bit rate : 2 038 Kbps
Width : 720 pixels
Height : 400 pixels
Display aspect ratio : 16:9
Frame rate : 25.000 fps
Color space : YUV
Chroma subsampling : 4:2:0
Bit depth : 8 bits
Scan type : Progressive
Compression mode : Lossy
Bits/(Pixel*Frame) : 0.283
Stream size : 1.25 GiB (91%)
Writing library : XviD 1.2.1 (UTC 2008-12-04)
Audio
ID : 1
Format : MPEG Audio
Format version : Version 1
Format profile : Layer 3
Codec ID : 55
Codec ID/Hint : MP3
Duration : 1h 27mn
Bit rate mode : Constant
Bit rate : 192 Kbps
Channel(s) : 2 channels
Sampling rate : 48.0 KHz
Compression mode : Lossy
Stream size : 120 MiB (9%)
Alignment : Aligned on interleaves
Interleave, duration : 40 ms (1.00 video frame)
Interleave, preload duration : 504 ms
Writing library : LAME3.98r
Encoding settings : -m s -V 4 -q 2 -lowpass 18.6 -b 192

Скриншот c названием фильма

Скриншоты

Скачать

Скачать торрент!

Как скачивать? · Что такое торрент? · Рейтинг и ограничения

Сайт не распространяет и не хранит электронные версии произведений, а лишь предоставляет доступ к создаваемому пользователями каталогу ссылок на торрент-файлы, которые содержат только списки хеш-сумм

[Профиль] [ЛС]
Показать сообщения:    
Ответить на тему

Текущее время: Сегодня 07:55

Часовой пояс: GMT + 4



Вы не можете начинать темы
Вы не можете отвечать на сообщения
Вы не можете редактировать свои сообщения
Вы не можете удалять свои сообщения
Вы не можете голосовать в опросах
Вы не можете прикреплять файлы к сообщениям
Вы не можете скачивать файлы