Возвращение героя / The Last Stand (Ким Чжи Ун / Kim Ji Woon) [2013, США, боевик, триллер, криминал, BDRip-AVC] Dub + Original (Eng) + Sub (Rus, Eng)

Ответить на тему
 
Автор Сообщение

user ®

Стаж: 7 лет 7 месяцев

Сообщений: 20008

Пост Пост: #1 от 01-Авг-2013 09:30

[Цитировать]

Возвращение героя / The Last Stand
Страна: США
Студия: Di Bonaventura Pictures
Жанр: боевик, триллер, криминал
Год выпуска: 2013
Продолжительность: 01:47:03
Перевод: профессиональный (дублированный) [лицензия]
Оригинальная аудиодорожка: английская
Cубтитры: русские, английские
Режиссер: Ким Чжи Ун / Kim Ji Woon
В ролях: Арнольд Шварценеггер, Джейми Александр, Форест Уитакер, Джонни Ноксвилл, Родриго Санторо, Луис Гузман, Эдуардо Норьега, Петер Стормаре, Зак Гилфорд, Генезис Родригез, Сонни Лэндэм, Гарри Дин Стэнтон, Джон Патрик Амедори, Дэниэл Хенни, Титос Менчаса, Ричард Диллард, Мэтью Грир, Крис Браунинг, Кристиана Люкас, Рио Александр
Описание: Опасная и жестокая банда наркоторговцев сбегает из-под конвоя ФБР. Прихватив заложника, они мчатся к мексиканской границе на бронированной, оснащенной первоклассным вооружением машине. У них на пути стоит лишь тихий городок, за порядком в котором следит шериф Оуенс. Когда-то он был одним из лучших полицейских Лос-Анджелеса, теперь он вернулся.

Релиз: fanatus
Качество видео: BDRip (AVC)
Исходник: Blu-ray disc [HDclub]
Контейнер: MKV
Видео: MPEG-4 AVC, 2982 kbps , 1280x536 (2.40:1), 24.000 fps, 0.181 bit/pixel
Аудио 1: русский (AC3, 6 ch, 48 kHz, 448 kbps)
Аудио 2: английский (AC3, 6 ch, 48 kHz, 448 kbps)
Формат субтитров: softsub (SRT)
Главы: есть

MediaInfo

General
Unique ID : 186912922205810236733605059437523360975 (0x8C9E1E9023F6853587EEC8B98067DCCF)
Complete name : D:\Vozvrashhenie.geroja.2013.x264.BDRip.(AVC).fanatus.mkv
Format : Matroska
Format version : Version 2
File size : 2.90 GiB
Duration : 1h 47mn
Overall bit rate : 3 878 Kbps
Movie name : The Last Stand (2013) - fanatus
Encoded date : UTC 2013-04-30 20:15:10
Writing application : mkvmerge v3.4.0 ('Rapunzel') сборка от May 15 2010 09:38:20
Writing library : libebml v0.8.0 + libmatroska v0.9.0
Video
ID : 1
Format : AVC
Format/Info : Advanced Video Codec
Format profile : High@L4.1
Format settings, CABAC : Yes
Format settings, ReFrames : 12 frames
Codec ID : V_MPEG4/ISO/AVC
Duration : 1h 47mn
Bit rate : 2 982 Kbps
Width : 1 280 pixels
Height : 536 pixels
Display aspect ratio : 2.40:1
Frame rate : 24.000 fps
Color space : YUV
Chroma subsampling : 4:2:0
Bit depth : 8 bits
Scan type : Progressive
Bits/(Pixel*Frame) : 0.181
Stream size : 2.17 GiB (75%)
Title : The Last Stand (2013)
Writing library : x264 core 130 r2273 b3065e6
Encoding settings : cabac=1 / ref=12 / deblock=1:-3:-3 / analyse=0x3:0x113 / me=umh / subme=11 / psy=1 / psy_rd=1.05:0.00 / mixed_ref=1 / me_range=48 / chroma_me=1 / trellis=2 / 8x8dct=1 / cqm=0 / deadzone=21,11 / fast_pskip=0 / chroma_qp_offset=-2 / threads=16 / lookahead_threads=4 / sliced_threads=0 / nr=0 / decimate=0 / interlaced=0 / bluray_compat=0 / constrained_intra=0 / bframes=12 / b_pyramid=2 / b_adapt=2 / b_bias=0 / direct=3 / weightb=1 / open_gop=0 / weightp=2 / keyint=240 / keyint_min=24 / scenecut=40 / intra_refresh=0 / rc_lookahead=240 / rc=2pass / mbtree=0 / bitrate=2982 / ratetol=1.0 / qcomp=0.70 / qpmin=0 / qpmax=69 / qpstep=4 / cplxblur=20.0 / qblur=0.5 / vbv_maxrate=50000 / vbv_bufsize=62500 / nal_hrd=none / ip_ratio=1.40 / pb_ratio=1.30 / aq=1:0.85 / zones=144754,154162,q=31
Language : English
Default : Yes
Forced : No
Color primaries : BT.709-5, BT.1361, IEC 61966-2-4, SMPTE RP177
Transfer characteristics : BT.709-5, BT.1361
Matrix coefficients : BT.709-5, BT.1361, IEC 61966-2-4 709, SMPTE RP177
Audio #1
ID : 2
Format : AC-3
Format/Info : Audio Coding 3
Mode extension : CM (complete main)
Format settings, Endianness : Big
Codec ID : A_AC3
Duration : 1h 47mn
Bit rate mode : Constant
Bit rate : 448 Kbps
Channel(s) : 6 channels
Channel positions : Front: L C R, Side: L R, LFE
Sampling rate : 48.0 KHz
Bit depth : 16 bits
Compression mode : Lossy
Stream size : 343 MiB (12%)
Title : Dub
Language : Russian
Default : Yes
Forced : Yes
Audio #2
ID : 3
Format : AC-3
Format/Info : Audio Coding 3
Mode extension : CM (complete main)
Format settings, Endianness : Big
Codec ID : A_AC3
Duration : 1h 47mn
Bit rate mode : Constant
Bit rate : 448 Kbps
Channel(s) : 6 channels
Channel positions : Front: L C R, Side: L R, LFE
Sampling rate : 48.0 KHz
Bit depth : 16 bits
Compression mode : Lossy
Stream size : 343 MiB (12%)
Title : Original
Language : English
Default : No
Forced : No
Text #1
ID : 4
Format : UTF-8
Codec ID : S_TEXT/UTF8
Codec ID/Info : UTF-8 Plain Text
Language : Russian
Default : No
Forced : No
Text #2
ID : 5
Format : UTF-8
Codec ID : S_TEXT/UTF8
Codec ID/Info : UTF-8 Plain Text
Language : English
Default : No
Forced : No
Menu
00:00:00.000 : en:Chapter 01
00:05:50.791 : en:Chapter 02
00:13:07.375 : en:Chapter 03
00:22:35.083 : en:Chapter 04
00:32:58.791 : en:Chapter 05
00:41:50.166 : en:Chapter 06
00:48:05.750 : en:Chapter 07
00:57:00.208 : en:Chapter 08
01:07:55.291 : en:Chapter 09
01:15:02.125 : en:Chapter 10
01:22:42.458 : en:Chapter 11
01:27:25.833 : en:Chapter 12
01:47:03.333 : en:Chapter 13

x264 [info]

---[NoImage] raw [info]: 1280x536p 1:1 @ 24/1 fps (cfr)
---[NoImage] x264 [info]: using SAR=1/1
---[NoImage] x264 [info]: using cpu capabilities: MMX2 SSE2Fast SSEMisalign LZCNT
---[NoImage] x264 [info]: profile High, level 4.1
---[NoImage]
---[NoImage] x264 [info]: frame I:1282 Avg QP:15.90 size: 80927
---[NoImage] x264 [info]: frame P:44635 Avg QP:19.76 size: 27420
---[NoImage] x264 [info]: frame B:108246 Avg QP:20.78 size: 9841
---[NoImage] x264 [info]: consecutive B-frames: 7.1% 7.3% 16.6% 21.2% 16.1% 23.9% 4.0% 1.2% 0.8% 0.4% 0.6% 0.3% 0.4%
---[NoImage] x264 [info]: mb I I16..4: 9.1% 74.0% 16.9%
---[NoImage] x264 [info]: mb P I16..4: 2.6% 15.3% 2.0% P16..4: 30.2% 31.8% 8.5% 0.0% 0.0% skip: 9.6%
---[NoImage] x264 [info]: mb B I16..4: 0.4% 1.6% 0.2% B16..8: 34.2% 19.0% 2.8% direct: 5.3% skip:36.5% L0:43.2% L1:45.2% BI:11.6%
---[NoImage] x264 [info]: 8x8 transform intra:75.7% inter:66.7%
---[NoImage] x264 [info]: direct mvs spatial:95.8% temporal:4.2%
---[NoImage] x264 [info]: coded y,uvDC,uvAC intra: 73.6% 76.8% 48.7% inter: 24.3% 26.0% 9.5%
---[NoImage] x264 [info]: i16 v,h,dc,p: 36% 16% 6% 42%
---[NoImage] x264 [info]: i8 v,h,dc,ddl,ddr,vr,hd,vl,hu: 10% 8% 8% 9% 13% 13% 13% 11% 14%
---[NoImage] x264 [info]: i4 v,h,dc,ddl,ddr,vr,hd,vl,hu: 13% 10% 11% 7% 13% 12% 12% 9% 12%
---[NoImage] x264 [info]: i8c dc,h,v,p: 35% 29% 18% 18%
---[NoImage] x264 [info]: Weighted P-Frames: Y:3.1% UV:2.0%
---[NoImage] x264 [info]: ref P L0: 49.5% 10.2% 15.8% 6.2% 4.8% 3.4% 2.9% 1.7% 1.5% 1.3% 1.2% 1.1% 0.3% 0.0%
---[NoImage] x264 [info]: ref B L0: 72.4% 11.7% 5.8% 3.0% 2.1% 1.6% 1.3% 0.8% 0.7% 0.4% 0.2%
---[NoImage] x264 [info]: ref B L1: 92.6% 7.4%
---[NoImage] x264 [info]: kb/s:2980.16
---[NoImage] encoded 154163 frames, 8.09 fps, 2980.16 kb/s

Скриншот c названием фильма

Скриншоты

Скачать

Скачать торрент!

Как скачивать? · Что такое торрент? · Рейтинг и ограничения

Сайт не распространяет и не хранит электронные версии произведений, а лишь предоставляет доступ к создаваемому пользователями каталогу ссылок на торрент-файлы, которые содержат только списки хеш-сумм

[Профиль] [ЛС]
Показать сообщения:    
Ответить на тему

Текущее время: Сегодня 10:52

Часовой пояс: GMT + 4



Вы не можете начинать темы
Вы не можете отвечать на сообщения
Вы не можете редактировать свои сообщения
Вы не можете удалять свои сообщения
Вы не можете голосовать в опросах
Вы не можете прикреплять файлы к сообщениям
Вы не можете скачивать файлы