Вульгария / Вульгарная комедия / Vulgaria (Хо-Чунг Панг / Ho-Cheung Pang) [2012, Китай Гонконг, комедия, HDRip] DVO

Ответить на тему
 
Автор Сообщение

user ®

Стаж: 11 лет

Сообщений: 15151

Пост Пост: #1 от 29-Июл-2013 21:50

[Цитировать]

Вульгария / Вульгарная комедия / Vulgaria
Год выпуска: 2012
Страна: Китай Гонконг
Жанр: комедия
Продолжительность: 01:32:56
Озвучено: Любительский (двухголосый, закадровый) DeadSno & den904
Перевод: Skyworker
Работа со звуком: КОЛОБОК
Режиссёр: Хо-Чунг Панг / Ho-Cheung Pang
В ролях: Чэпман То, Рональд Чэн, Dada Chan, Сует Лам, Сюй-ман Чим, Мэтт Чоу, Хироёси Комуро, Саймон Лоуи, Кристал Тинь, Шоу Йин Йин...
Описание: Фильм был квалифицирован, как вульгарная, злобная комедия, в которой море ненормативной лексики и стёб над всем сущим. Этот фильм о киноиндустрии и о том, как же делается то, что мы смотрим, о самом процессе и о людях в этом процессе. В центре сюжета стоит продюсер-неудачник, Чен, который пытается найти спонсора для своего кино. Наконец он его находит в лице главы мафии Тираннозавра... Но сможет ли продюсер выполнить все условия, чтобы получить деньги для съемки своего фильма?

Релиз группы: &

Качество: HDRip
Формат: AVI
Видео кодек: AC3
Аудио кодек: MP3
Видео: XviD, 720x304 (2.37:1), 16:9, 24.000fps, 1887 kb/s, 0.359 bits/pixel
Аудио : AC3, 48 kHz, 96 ch, 192 kbps

Скриншоты

MI

Complete name                            : Vulgaria.2012.HDRip.avi
Format                                   : AVI
Format/Info                              : Audio Video Interleave
File size                                : 1.35 GiB
Duration                                 : 1h 32mn
Overall bit rate                         : 2 086 Kbps
Writing library                          : VirtualDub build 35390/release
Video
ID                                       : 0
Format                                   : MPEG-4 Visual
Format profile                           : Advanced Simple@L5
Format settings, BVOP                    : 2
Format settings, QPel                    : No
Format settings, GMC                     : No warppoints
Format settings, Matrix                  : Default (MPEG)
Muxing mode                              : Packed bitstream
Codec ID                                 : XVID
Codec ID/Hint                            : XviD
Duration                                 : 1h 32mn
Bit rate                                 : 1 884 Kbps
Width                                    : 720 pixels
Height                                   : 304 pixels
Display aspect ratio                     : 2.35:1
Frame rate                               : 24.000 fps
Color space                              : YUV
Chroma subsampling                       : 4:2:0
Bit depth                                : 8 bits
Scan type                                : Progressive
Compression mode                         : Lossy
Bits/(Pixel*Frame)                       : 0.359
Stream size                              : 1.22 GiB (90%)
Writing library                          : XviD 64
Audio
ID                                       : 1
Format                                   : AC-3
Format/Info                              : Audio Coding 3
Mode extension                           : CM (complete main)
Format settings, Endianness              : Big
Codec ID                                 : 2000
Duration                                 : 1h 32mn
Bit rate mode                            : Constant
Bit rate                                 : 192 Kbps
Channel(s)                               : 2 channels
Channel positions                        : Front: L R
Sampling rate                            : 48.0 KHz
Bit depth                                : 16 bits
Compression mode                         : Lossy
Stream size                              : 128 MiB (9%)
Alignment                                : Aligned on interleaves
Interleave, duration                     : 42 ms (1.00 video frame)
Interleave, preload duration             : 512 ms
Скачать

Скачать торрент! Вульгария / Вульгарная комедия / Vulgaria (Хо-Чунг Панг / Ho-Cheung Pang) [2012, Китай Гонконг, комедия, HDRip] DVO

Как скачивать? · Что такое торрент? · Рейтинг и ограничения

Сайт не распространяет и не хранит электронные версии произведений, а лишь предоставляет доступ к создаваемому пользователями каталогу ссылок на торрент-файлы, которые содержат только списки хеш-сумм

[Профиль] [ЛС]
Показать сообщения:    
Ответить на тему

Текущее время: Сегодня 02:44

Часовой пояс: GMT + 4



Вы не можете начинать темы
Вы не можете отвечать на сообщения
Вы не можете редактировать свои сообщения
Вы не можете удалять свои сообщения
Вы не можете голосовать в опросах
Вы не можете прикреплять файлы к сообщениям
Вы не можете скачивать файлы