Любовь без пересадок / Amour & turbulences (Александр Кастаньетти /Alexandre Castagnetti) [2013, Франция, мелодрама, DVDRip] Dub

Ответить на тему
 
Автор Сообщение

user ®

Стаж: 7 лет 7 месяцев

Сообщений: 20008

Пост Пост: #1 от 29-Июл-2013 21:50

[Цитировать]

Любовь без пересадок / Amour & turbulences
Страна: Франция
Жанр: мелодрама, комедия
Год выпуска: 2013
Продолжительность: 01:33:10
Перевод: Профессиональный (дублированный)
Cубтитры: нет
Оригинальная аудиодорожка: нет
Режиссер: Александр Кастаньетти /Alexandre Castagnetti
В ролях: Людивин Санье, Николя Бедо, Джонатан Коэн, Арно Дюкре, Бриджитт Катийон,
Жакки Берруайе, Клементин Селарье, Мишель Вюйермоз, Лила Сале, Ина Кастаньетти...
Описание: Преуспевающий адвокат Антуан никогда не знал недостатка в женском внимании.
Отправляясь по делам из Нью-Йорка в Париж, в самолете он оказывается в соседнем кресле с бывшей
подругой Джули. Обреченные провести вместе семь долгих часов бывшие любовники успевают
вспомнить былые обиды, все неприятности, доставленные друг другу, и понять, что их разрыв был
ошибкой. Но успеют ли они эту ошибку исправить?
Сэмпл: http://multi-up.com/888438
Качество видео: DVDRip
Формат видео: AVI
Видео: XviD, 720x304, 25.000 fps, 1972 kbрs
Аудио: AC3, 48 000 Гц, 256 kbрs, 6 кан

MediaInfo

Общее
Полное имя : D:\down\Lubov.bez.peresadok.2013.D.DVDRip.avi
Формат : AVI
Формат/Информация : Audio Video Interleave
Размер файла : 1,46 Гбайт
Продолжительность : 1 ч. 33 м.
Общий поток : 2238 Кбит/сек
Программа кодирования : VirtualDubMod 1.5.10.3 | www.virtualdub-fr.org || (build 2550/release)
Библиотека кодирования : VirtualDubMod build 2550/release
Видео
Идентификатор : 0
Формат : MPEG-4 Visual
Профиль формата : Advanced Simple@L5
Параметр BVOP формата : 1
Параметр QPel формата : Нет
Параметр GMC формата : Без точки перехода
Параметр матрицы формата : Выборочная
Идентификатор кодека : XVID
Идентификатор кодека/Подсказка : XviD
Продолжительность : 1 ч. 33 м.
Битрейт : 1972 Кбит/сек
Ширина : 720 пикселей
Высота : 304 пикселя
Соотношение сторон : 2,35:1
Частота кадров : 25,000 кадров/сек
Цветовое пространство : YUV
Субдискретизация насыщенности : 4:2:0
Битовая глубина : 8 бит
Тип развёртки : Прогрессивная
Метод сжатия : С потерями
Бит/(Пиксели*Кадры) : 0.360
Размер потока : 1,28 Гбайт (88%)
Библиотека кодирования : XviD 65
Аудио
Идентификатор : 1
Формат : AC-3
Формат/Информация : Audio Coding 3
Расширение режима : CM (complete main)
Параметр Endianness формата : Big
Идентификатор кодека : 2000
Продолжительность : 1 ч. 33 м.
Вид битрейта : Постоянный
Битрейт : 256 Кбит/сек
Каналы : 6 каналов
Расположение каналов : Front: L C R, Side: L R, LFE
Частота : 48,0 КГц
Битовая глубина : 16 бит
Метод сжатия : С потерями
Размер потока : 171 Мбайт (11%)
Выравнивание : Разделение по промежуткам
Продолжительность промежутка : 40 мс. (1,00 видеокадр)
Время предзагрузки промежутка : 500 мс.

Скриншот c названием фильма

Скриншоты



Скачать

Скачать торрент!

Как скачивать? · Что такое торрент? · Рейтинг и ограничения

Сайт не распространяет и не хранит электронные версии произведений, а лишь предоставляет доступ к создаваемому пользователями каталогу ссылок на торрент-файлы, которые содержат только списки хеш-сумм

[Профиль] [ЛС]
Показать сообщения:    
Ответить на тему

Текущее время: Сегодня 03:54

Часовой пояс: GMT + 4



Вы не можете начинать темы
Вы не можете отвечать на сообщения
Вы не можете редактировать свои сообщения
Вы не можете удалять свои сообщения
Вы не можете голосовать в опросах
Вы не можете прикреплять файлы к сообщениям
Вы не можете скачивать файлы