Кешка и Фреди (Борис Берзнер) [1992 г., Детская комедия, Короткометражка, DVB]

Ответить на тему
 
Автор Сообщение

user ®

Стаж: 7 лет 7 месяцев

Сообщений: 20008

Пост Пост: #1 от 29-Июл-2013 18:40

[Цитировать]

Кешка и Фреди
Жанр: Детская комедия, Короткометражка
Год выпуска: 1992
Продолжительность: 00:18:56
Режиссёр: Борис Берзнер
В ролях: Иннокентий Сичкарь, Юрий Казючиц, Анатолий Ахрамович, Илья Винокуров, Александр Кашперов, Артем Усов
Описание: Учитель ругает Кешку за двойки по английскому языку. Вместо того, чтобы делать уроки, Кешка поддается уговорам друзьям и идет в видеосалон на фильм-ужасов с известным персонажем Фреди Крюгером. Но Кешке скучно. Он засыпает, и ему снится кошмарный сон ...
Трансляция спутникового канала: Карусель

Состав сериала:
1. "Кешка и фрукты" (1991)
2. "Кешка и спецназ" (1991)
3. "Кешка и "гангстеры" (1991)
4. "Кешка и маг" (1992)
5. "Кешка и Фреди" (1992)
6. "Кешка и гуманоид" (1993)
7. "Кешка и террористы" (1993)
8. "Кешка и бизнес" (1993)
9. "Кешка и борода" (1993)
Качество видео: DVB
Формат видео: MPEG-PS
Видео: MPEG2 Video, 720x576, 25 fps, 3300 kbps
Аудио: MPEG Audio (Version 1) Layer 2, 2 сh, 48 kHz, 192 kbps

MediaInfo

General
Complete name : D:\Кешка и Фреди. (1992)_DVB by SLuMeP.mpg
Format : MPEG-PS
File size : 480 MiB
Duration : 18mn 56s
Overall bit rate mode : Variable
Overall bit rate : 3 540 Kbps
Video
ID : 224 (0xE0)
Format : MPEG Video
Format version : Version 2
Format profile : Main@Main
Format settings, BVOP : Yes
Format settings, Matrix : Custom
Format settings, GOP : M=3, N=12
Duration : 18mn 56s
Bit rate mode : Variable
Bit rate : 3 278 Kbps
Maximum bit rate : 5 000 Kbps
Width : 720 pixels
Height : 576 pixels
Display aspect ratio : 4:3
Frame rate : 25.000 fps
Standard : PAL
Color space : YUV
Chroma subsampling : 4:2:0
Bit depth : 8 bits
Scan type : Interlaced
Scan order : Top Field First
Compression mode : Lossy
Bits/(Pixel*Frame) : 0.316
Time code of first frame : 00:00:00:00
Time code source : Group of pictures header
Stream size : 444 MiB (93%)
Audio
ID : 192 (0xC0)
Format : MPEG Audio
Format version : Version 1
Format profile : Layer 2
Duration : 18mn 56s
Bit rate mode : Constant
Bit rate : 192 Kbps
Channel(s) : 2 channels
Sampling rate : 48.0 KHz
Compression mode : Lossy
Stream size : 26.0 MiB (5%)

Скриншоты

Скачать

Скачать торрент!

Как скачивать? · Что такое торрент? · Рейтинг и ограничения

Сайт не распространяет и не хранит электронные версии произведений, а лишь предоставляет доступ к создаваемому пользователями каталогу ссылок на торрент-файлы, которые содержат только списки хеш-сумм

[Профиль] [ЛС]
Показать сообщения:    
Ответить на тему

Текущее время: Сегодня 09:57

Часовой пояс: GMT + 4



Вы не можете начинать темы
Вы не можете отвечать на сообщения
Вы не можете редактировать свои сообщения
Вы не можете удалять свои сообщения
Вы не можете голосовать в опросах
Вы не можете прикреплять файлы к сообщениям
Вы не можете скачивать файлы