Испанский узник / Spanish Prisoner, The (Дэвид Мэмет / David Mamet) [1997, США, Детективный триллер, WEB-DL 720p] AVO (Карцев) + DVO + Sub Eng + Original Eng

Ответить на тему
 
Автор Сообщение

user ®

Стаж: 7 лет 7 месяцев

Сообщений: 20008

Пост Пост: #1 от 29-Июл-2013 01:25

[Цитировать]

Испанский узник / Spanish Prisoner, The
Страна: США
Студия: Sweetland Films
Жанр: Детективный триллер
Год выпуска: 1997
Продолжительность: 01:50:01
Перевод 1: Авторский (одноголосый закадровый) Петр Карцев
Перевод 2: Профессиональный (двухголосый закадровый)
Cубтитры: английские
Оригинальная аудиодорожка: английский
Режиссер: Дэвид Мэмет / David Mamet
В ролях: Бен Газзара /Ben Gazzara/, Фелисити Хаффман /Felicity Huffman/, Рикки Джей /Ricky Jay/, Стив Мартин /Steve Martin/, Ребекка Пиджн /Rebecca Pidgeon/, Кэмпбелл Скотт /Campbell Scott/, Джерри Графф (Jerry Graff), Дж. Рой Левин (G. Roy Levin), Хилари Хинкл /Hilary Hinckle/, Дэвид Питту /David Pittu/, Кристофер Калдор /Christopher Kaldor/, Майк Робинсон /Mike Robinson/, Оливия Текоски (Olivia Tecosky), Шарлотта Поток (Charlotte Potok), Пол Батлер (Paul Butler), Дж.Дж. Джонстон /J.J. Johnston/, Эмили Вайсберг /Emily Weisberg/, Стефани Росс (Stephanie Ross), Эллиот Какер /Elliot Cuker/, Джордан Лейдж /Jordan Lage/, Стивен Голдстин /Steven Goldstein
Описание: Изобретатель Джо Росс (Кэмпбелл Скотт) разработал технологический проект, позволяющий опередить других авторов. Об этом прознали злоумышленники во главе с Джимми Деллом (Стив Мартин). Была осуществлена хитроумно продуманная операция, в результате которой они не только завладели проектом, но и подставили Росса под статью о промышленном шпионаже в пользу другой страны, обвинив в убийстве своего друга и компаньона. Сделан фильм в лучших традициях триллера, в конце имеется почти хичкоковский саспенс. (Иванов М.)
--------------------------------------------------------------------------------
Оператор: Гэбриэл Беристэйн /Gabriel Beristain/
Сценарист: Дэвид Мамет /David Mamet/
Продюсер: Жан Думанян /Jean Doumanian/
Переводчик: Петр Карцев
Монтажер: Барбара Талливер /Barbara Tulliver/
Композитор: Картер Беруэлл /Carter Burwell/
Художник: Тим Гэлвин /Tim Galvin/
--------------------------------------------------
КИНОПОИСК. RU
РЕЙТИНГ -7.268 оценки: 190
7,2/10 from 15 073 users
--------------------------------------------------
Доп. информация: Рип найден в сети. Карцев из личной коллекции.
----------------
СЭМПЛ
----------------
Тип релиза: WEB-DL 720p
Контейнер: MKV
Видео: 1280x718; 23.976 fps; ~ 3 948 Kbps; 0.179 Bits/Pixel
Аудио 1: Russian - 48 kHz, AC3 Dolby Digital, 2/0 (L,R) ch, ~192 kbps - Петр Карцев
Аудио 2: Russian - 48 kHz, AC3 Dolby Digital, 2/0 (L,R) ch, ~192 kbps - DVO
Аудио 3: English - 48 kHz, AC3 Dolby Digital, 1/0 (C) ch, ~192 kbps, - Original
Формат субтитров: *UTF-8

MediaInfo

General
Complete name : F:\EXCLUZIVE=19\ИСПАНСКИЙ УЗНИК[SPANISH PRISONER, THE][1997]\SPANISH PRISONER, THE[1997]\Spanish Prisoner,The.1997.720p.WEB-DL.mkv
Format : Matroska
File size : 3.55 GiB
Duration : 1h 50mn
Overall bit rate : 4 616 Kbps
Encoded date : UTC 2013-07-28 14:09:32
Writing application : mkvmerge v3.3.0 ('Language') built on Mar 24 2010 14:59:24
Writing library : libebml v0.8.0 + libmatroska v0.9.0
Video
ID : 1
Format : AVC
Format/Info : Advanced Video Codec
Format profile : High@L3.1
Format settings, CABAC : No
Format settings, ReFrames : 2 frames
Muxing mode : Container profile=Unknown@3.1
Codec ID : V_MPEG4/ISO/AVC
Duration : 1h 50mn
Bit rate : 3 948 Kbps
Width : 1 280 pixels
Height : 718 pixels
Display aspect ratio : 16:9
Frame rate : 23.976 fps
Color space : YUV
Chroma subsampling : 4:2:0
Bit depth : 8 bits
Scan type : Progressive
Bits/(Pixel*Frame) : 0.179
Stream size : 3.03 GiB (86%)
Title : The.Spanish.Prisoner.1997
Language : English
Color primaries : BT.709-5, BT.1361, IEC 61966-2-4, SMPTE RP177
Transfer characteristics : BT.709-5, BT.1361
Matrix coefficients : BT.709-5, BT.1361, IEC 61966-2-4 709, SMPTE RP177
Audio #1
ID : 2
Format : AC-3
Format/Info : Audio Coding 3
Mode extension : CM (complete main)
Codec ID : A_AC3
Duration : 1h 50mn
Bit rate mode : Constant
Bit rate : 192 Kbps
Channel(s) : 2 channels
Channel positions : Front: L R
Sampling rate : 48.0 KHz
Stream size : 151 MiB (4%)
Title : AVO-Карцев @ AC3 192 kbps
Language : Russian
Audio #2
ID : 3
Format : AC-3
Format/Info : Audio Coding 3
Mode extension : CM (complete main)
Codec ID : A_AC3
Duration : 1h 50mn
Bit rate mode : Constant
Bit rate : 192 Kbps
Channel(s) : 2 channels
Channel positions : Front: L R
Sampling rate : 48.0 KHz
Stream size : 151 MiB (4%)
Title : DVO @ AC3 192 kbps
Language : Russian
Audio #3
ID : 4
Format : AC-3
Format/Info : Audio Coding 3
Mode extension : CM (complete main)
Codec ID : A_AC3
Duration : 1h 50mn
Bit rate mode : Constant
Bit rate : 192 Kbps
Channel(s) : 2 channels
Channel positions : Front: L R
Sampling rate : 48.0 KHz
Stream size : 151 MiB (4%)
Title : Original @ AC3 192 kbs
Language : English
Text
ID : 5
Format : UTF-8
Codec ID : S_TEXT/UTF8
Codec ID/Info : UTF-8 Plain Text
Language : English
Menu
00:00:00.000 : en:1
00:05:37.000 : en:2
00:09:26.000 : en:3
00:17:36.000 : en:4
00:22:57.000 : en:5
00:30:04.000 : en:6
00:38:37.000 : en:7
00:45:02.000 : en:8
00:52:06.000 : en:9
00:58:44.000 : en:10
01:07:57.000 : en:11
01:15:06.000 : en:12
01:18:35.000 : en:13
01:25:26.000 : en:14
01:29:03.000 : en:15
01:34:25.000 : en:16

Скриншоты

, ,
, ,
, ,
Скачать

Скачать торрент!

Как скачивать? · Что такое торрент? · Рейтинг и ограничения

Сайт не распространяет и не хранит электронные версии произведений, а лишь предоставляет доступ к создаваемому пользователями каталогу ссылок на торрент-файлы, которые содержат только списки хеш-сумм

[Профиль] [ЛС]

Maikl

Стаж: 6 лет 1 месяц

Сообщений: 11

Пост Пост: #2 от 29-Июл-2013 23:54 (спустя 22 часа)

[Цитировать]

Молодой Стив Мартин (Розовая пантера) бесподобен.
[Профиль] [ЛС]
Показать сообщения:    
Ответить на тему

Текущее время: Сегодня 18:38

Часовой пояс: GMT + 4



Вы не можете начинать темы
Вы не можете отвечать на сообщения
Вы не можете редактировать свои сообщения
Вы не можете удалять свои сообщения
Вы не можете голосовать в опросах
Вы не можете прикреплять файлы к сообщениям
Вы не можете скачивать файлы