Моби Дик / Moby Dick (Майк Баркер / Mike Barker) [2010, Германия, Австрия, драма, приключения, BDRip 720p] MVO (Кармен Видео) + 2x Sub (Rus, Eng) + Original Eng

Ответить на тему
 
Автор Сообщение

user ®

Стаж: 7 лет 7 месяцев

Сообщений: 20008

Пост Пост: #1 от 28-Июл-2013 16:30

[Цитировать]

Моби Дик / Moby Dick
Страна: Германия, Австрия
Жанр: драма, приключения
Год выпуска: 2010
Продолжительность: 03:06:38
Перевод: Профессиональный (многоголосый закадровый) Кармен Видео
Cубтитры: русские, английские
Оригинальная аудиодорожка: английский
-
Режиссер: Майк Баркер / Mike Barker
В ролях: Уильям Хёрт, Итан Хоук, Чарли Кокс, Эдди Марсан, Джиллиан Андерсон, Билли Бойд, Рауль Трухильо, Дэниэл С. Гордон, Джеймс Гилберт, Мэттью Лемке
-
Описание: Неутолимая жажда приключений приводит молодого американца Измаила на борт китобойного судна. Уже отбыв в многодневное и опасное плавание, Измаил узнает, что капитан корабля одержим безумной идеей найти и уничтожить легендарного белого кита по прозвищу Моби Дик, которого не без основания называют «морским дьяволом».

Тип релиза: BDRip 720p
Контейнер: MKV
Видео: H264 / NTSC 16:9 / 1280x720 (1,78:1) / 8686 kbps / 23,976 fps / 0.393 bit/pixel / High@L4.1
Аудио 1: Russian / AC3 / 48 kHz / 5.1 Ch / 384 kbps / 16 bit / MVO
Аудио 2: English / DTS / 48 kHz / 5.1 Ch / 1510 kbps / 24 bit / Original
Формат субтитров: softsub (SRT)
Навигация по главам: есть

Доп.инфо

Выкуп DVD9 с озона - на личные средства.

MediaInfo

Общее
Уникальный идентификатор : 247149090522431094394640639981070541593 (0xB9EF2EF4629C3D40A0B79BB222476319)
Полное имя : W:\BDRip 720p\Moby Dick.2010.BDRip.720p.mkv
Формат : Matroska
Версия формата : Version 4 / Version 2
Размер файла : 13,6 Гбайт
Продолжительность : 3 ч. 6 м.
Общий поток : 10,5 Мбит/сек
Дата кодирования : UTC 2013-07-28 08:12:50
Программа кодирования : mkvmerge v6.3.0 ('You can't stop me!') built on Jun 28 2013 20:09:41
Библиотека кодирования : libebml v1.3.0 + libmatroska v1.4.0
Видео
Идентификатор : 1
Формат : AVC
Формат/Информация : Advanced Video Codec
Профиль формата : High@L4.1
Параметр CABAC формата : Да
Параметр ReFrames формата : 9 кадров
Идентификатор кодека : V_MPEG4/ISO/AVC
Продолжительность : 3 ч. 6 м.
Битрейт : 8686 Кбит/сек
Ширина : 1280 пикселей
Высота : 720 пикселей
Соотношение сторон : 16:9
Режим частоты кадров : Постоянный
Частота кадров : 23,976 кадра/сек
Цветовое пространство : YUV
Субдискретизация насыщенности : 4:2:0
Битовая глубина : 8 бит
Тип развёртки : Прогрессивная
Бит/(Пиксели*Кадры) : 0.393
Размер потока : 10,9 Гбайт (80%)
Библиотека кодирования : x264 core 116 r2074 2641b9e
Настройки программы : cabac=1 / ref=9 / deblock=1:-3:-3 / analyse=0x3:0x133 / me=umh / subme=10 / psy=1 / psy_rd=1.00:0.10 / mixed_ref=1 / me_range=48 / chroma_me=1 / trellis=2 / 8x8dct=1 / cqm=0 / deadzone=21,11 / fast_pskip=0 / chroma_qp_offset=-3 / threads=12 / sliced_threads=0 / nr=0 / decimate=0 / interlaced=0 / bluray_compat=0 / constrained_intra=0 / bframes=6 / b_pyramid=2 / b_adapt=2 / b_bias=0 / direct=3 / weightb=1 / open_gop=0 / weightp=2 / keyint=360 / keyint_min=2 / scenecut=40 / intra_refresh=0 / rc_lookahead=60 / rc=2pass / mbtree=1 / bitrate=8686 / ratetol=1.0 / qcomp=0.70 / qpmin=0 / qpmax=69 / qpstep=4 / cplxblur=20.0 / qblur=0.5 / vbv_maxrate=50000 / vbv_bufsize=30000 / nal_hrd=none / ip_ratio=1.40 / aq=2:1.00
Язык : English
Default : Да
Forced : Нет
Аудио #1
Идентификатор : 2
Формат : AC-3
Формат/Информация : Audio Coding 3
Расширение режима : CM (complete main)
Параметр Endianness формата : Big
Идентификатор кодека : A_AC3
Продолжительность : 3 ч. 6 м.
Вид битрейта : Постоянный
Битрейт : 384 Кбит/сек
Каналы : 6 каналов
Расположение каналов : Front: L C R, Side: L R, LFE
Частота : 48,0 КГц
Битовая глубина : 16 бит
Метод сжатия : С потерями
Размер потока : 513 Мбайт (4%)
Заголовок : MVO
Язык : Russian
Default : Да
Forced : Нет
Аудио #2
Идентификатор : 3
Формат : DTS
Формат/Информация : Digital Theater Systems
Идентификатор кодека : A_DTS
Продолжительность : 3 ч. 6 м.
Вид битрейта : Постоянный
Битрейт : 1510 Кбит/сек
Каналы : 6 каналов
Расположение каналов : Front: L C R, Side: L R, LFE
Частота : 48,0 КГц
Битовая глубина : 24 бит
Метод сжатия : С потерями
Размер потока : 1,97 Гбайт (14%)
Заголовок : Original
Язык : English
Default : Нет
Forced : Нет
Текст #1
Идентификатор : 4
Формат : UTF-8
Идентификатор кодека : S_TEXT/UTF8
Идентификатор кодека/Информация : UTF-8 Plain Text
Заголовок : RUS / DVD
Язык : Russian
Default : Нет
Forced : Нет
Текст #2
Идентификатор : 5
Формат : UTF-8
Идентификатор кодека : S_TEXT/UTF8
Идентификатор кодека/Информация : UTF-8 Plain Text
Заголовок : Original
Язык : English
Default : Нет
Forced : Нет
Меню
00:00:00.000 : en:Chapter 1
00:02:00.601 : en:Chapter 2
00:12:44.101 : en:Chapter 3
00:22:02.568 : en:Chapter 4
00:25:07.668 : en:Chapter 5
00:32:43.202 : en:Chapter 6
00:37:55.103 : en:Chapter 7
00:43:26.737 : en:Chapter 8
00:46:45.870 : en:Chapter 9
00:52:51.370 : en:Chapter 10
00:58:08.104 : en:Chapter 11
01:02:01.972 : en:Chapter 12
01:06:29.940 : en:Chapter 13
01:11:12.940 : en:Chapter 14
01:14:02.307 : en:Chapter 15
01:20:46.941 : en:Chapter 16
01:24:47.074 : en:Chapter 17
01:28:32.308 : en:Chapter 18
01:37:56.308 : en:Chapter 19
01:43:45.942 : en:Chapter 20
01:47:21.576 : en:Chapter 21
01:52:57.943 : en:Chapter 22
01:56:16.477 : en:Chapter 23
01:59:13.477 : en:Chapter 24
02:03:27.744 : en:Chapter 25
02:06:35.011 : en:Chapter 26
02:12:46.578 : en:Chapter 27
02:14:50.179 : en:Chapter 28
02:17:00.080 : en:Chapter 29
02:19:58.447 : en:Chapter 30
02:22:31.514 : en:Chapter 31
02:38:15.415 : en:Chapter 32
02:46:31.216 : en:Chapter 33
02:50:40.817 : en:Chapter 34
02:57:31.217 : en:Chapter 35
02:58:58.384 : en:Chapter 36
03:00:20.718 : en:Chapter 37

Скриншоты

Скачать

Скачать торрент!

Как скачивать? · Что такое торрент? · Рейтинг и ограничения

Сайт не распространяет и не хранит электронные версии произведений, а лишь предоставляет доступ к создаваемому пользователями каталогу ссылок на торрент-файлы, которые содержат только списки хеш-сумм

[Профиль] [ЛС]
Показать сообщения:    
Ответить на тему

Текущее время: Сегодня 12:04

Часовой пояс: GMT + 4



Вы не можете начинать темы
Вы не можете отвечать на сообщения
Вы не можете редактировать свои сообщения
Вы не можете удалять свои сообщения
Вы не можете голосовать в опросах
Вы не можете прикреплять файлы к сообщениям
Вы не можете скачивать файлы