Отважная / The Brave One (Нил Джордан / Neil Jordan) [2007, США, Боевик, триллер, BDRemux 1080p] Dub + AVO (Юрий Немахов) + Sub Rus, Eng + Original Eng

Ответить на тему
 
Автор Сообщение

user ®

Стаж: 7 лет 7 месяцев

Сообщений: 20008

Пост Пост: #1 от 28-Июл-2013 07:55

[Цитировать]

-Отважная / The Brave One-Страна: США
Жанр: Боевик, триллер
Год выпуска: 2007
Продолжительность: 02:02:18-Перевод: Профессиональный (дублированный)
Перевод 2: Авторский (одноголосый закадровый) Юрий Немахов
Cубтитры: русские , английские
Оригинальная аудиодорожка: английский-Режиссер: Нил Джордан / Neil Jordan
В ролях: Джоди Фостер, Нэвин Эндрюс, Джейн Адамс, Даг Агирр, Маргарет Бэйкер, Бретт Берг, James Biberi, Анджело Бонсигнор, Майкл Дж. Бёрг, Джек Карузо, Игорь Черкасский, Доминик Чикко, Берн Коэн, Брайан Дилейт, Дэна Эскелсон, Ларри Фесенден, Блэйз Фостер, Дэннис Фанни, Фрэнк Хансен, Анна Маргарет Холлиман, Джернел Ховард-Описание: Ведущая нью-йоркского радио Эрика Бэйн едва оправилась от жестокого нападения, которое стоило жизни ее жениху... Она принимается бродить по улицам ночного города в поисках преступников, виновных в ее несчастье, и жестоко мстит им. В то время как жители города восторгаются ее анонимными подвигами, полиция пытается ее найти. Преследуемая упорным детективом, Эрика спрашивает себя: действительно ли ее карающий крестовый поход является правильным решением?-Сэмпл: http://yadi.sk/d/rLtol1LZ78psd-Тип релиза: BDRemux 1080p
Контейнер: MKV
Видео: VC-1 Video / 17027 kbps / 1080p / 23.976 fps / 16:9 / Advanced Profile 3
Аудио: Dolby Digital Audio Russian 5.1 / 48 kHz / 384 kbps
Аудио: Dolby Digital Audio Russian 5.1 / 48 kHz / 384 kbps
Аудио: English / DTS-HD Master Audio / 5.1 / 48 kHz / 1722 kbps / 16-bit (DTS Core: 5.1 / 48 kHz / 768 kbps / 16-bit)
Формат субтитров: softsub (SRT)

MI

General
Complete name                    : X:\  -= Фильмы =-\Отважная (2007. The Brave One).mkv
Format                           : Matroska
File size                        : 16.7 GiB
Duration                         : 2h 2mn
Overall bit rate                 : 19.5 Mbps
Movie name                       : Release for RuTracker
Encoded date                     : UTC 2013-07-22 18:36:45
Writing application              : mkvmerge v4.9.1 ('Ich will') сборка от Jul 11 2011 23:53:15
Writing library                  : libebml v1.2.1 + libmatroska v1.1.1
Cover                            : Yes
Video
ID                               : 1
Format                           : VC-1
Format profile                   : AP@L3
Codec ID                         : WVC1
Codec ID/Hint                    : Microsoft
Duration                         : 2h 2mn
Width                            : 1 920 pixels
Height                           : 1 080 pixels
Display aspect ratio             : 16:9
Frame rate                       : 23.976 fps
Chroma subsampling               : 4:2:0
Bit depth                        : 8 bits
Scan type                        : Progressive
Title                            : The Brave One (2007) BD25 1080p VC-1
Language                         : English
Audio #1
ID                               : 2
Format                           : AC-3
Format/Info                      : Audio Coding 3
Mode extension                   : CM (complete main)
Codec ID                         : A_AC3
Duration                         : 2h 2mn
Bit rate mode                    : Constant
Bit rate                         : 384 Kbps
Channel(s)                       : 6 channels
Channel positions                : Front: L C R, Side: L R, LFE
Sampling rate                    : 48.0 KHz
Bit depth                        : 16 bits
Video delay                      : 3ms
Stream size                      : 336 MiB (2%)
Title                            : Dub
Language                         : Russian
Audio #2
ID                               : 3
Format                           : AC-3
Format/Info                      : Audio Coding 3
Mode extension                   : CM (complete main)
Codec ID                         : A_AC3
Duration                         : 2h 2mn
Bit rate mode                    : Constant
Bit rate                         : 384 Kbps
Channel(s)                       : 6 channels
Channel positions                : Front: L C R, Side: L R, LFE
Sampling rate                    : 48.0 KHz
Bit depth                        : 16 bits
Stream size                      : 336 MiB (2%)
Title                            : Юрий Немахов
Language                         : Russian
Audio #3
ID                               : 4
Format                           : DTS
Format/Info                      : Digital Theater Systems
Format profile                   : MA
Codec ID                         : A_DTS
Duration                         : 2h 2mn
Bit rate mode                    : Variable
Channel(s)                       : 6 channels
Channel positions                : Front: L C R, Side: L R, LFE
Sampling rate                    : 48.0 KHz
Bit depth                        : 16 bits
Language                         : English
Text #1
ID                               : 5
Format                           : UTF-8
Codec ID                         : S_TEXT/UTF8
Codec ID/Info                    : UTF-8 Plain Text
Language                         : Russian
Text #2
ID                               : 6
Format                           : UTF-8
Codec ID                         : S_TEXT/UTF8
Codec ID/Info                    : UTF-8 Plain Text
Language                         : English
Menu
00:00:00.000                     : en:On-Air Credits
00:03:41.054                     : en:The Whole Deal
00:08:28.341                     : en:Park Attack
00:11:01.411                     : en:Doing Our Thing
00:14:48.888                     : en:Doesn't Feel Like That
00:17:45.398                     : en:Invaded Dreams
00:21:57.149                     : en:I Realize How Difficult
00:26:17.242                     : en:Illegal Purchase
00:30:02.634                     : en:You Don't Let Go
00:32:18.103                     : en:Corner Store
00:35:52.650                     : en:Stranger Inside
00:40:40.605                     : en:When It Touches You
00:45:35.650                     : en:Subway Targets
00:49:31.802                     : en:Every Bullet Hit Home
00:53:37.548                     : en:Gone and Back Now
00:57:59.643                     : en:Become Someone Else
01:02:51.768                     : en:Backseat Show
01:06:50.506                     : en:Windshield Wipeout
01:08:55.131                     : en:Audience Profile
01:14:33.469                     : en:When You Can't Sleep
01:17:39.154                     : en:Going to Leave a Scar
01:22:34.283                     : en:Friend at an Interview
01:27:30.745                     : en:Just the Face
01:30:28.757                     : en:The Lineup
01:35:59.587                     : en:Someone Close to Me
01:40:36.030                     : en:Private Searches
01:43:05.513                     : en:Getting the Message
01:47:22.936                     : en:90 Clayton Ave
01:50:52.813                     : en:I Have the Right
01:53:26.967                     : en:Never a Vigilante
01:58:14.087                     : en:End Credits

Скриншоты


Скачать

Скачать торрент!

Как скачивать? · Что такое торрент? · Рейтинг и ограничения

Сайт не распространяет и не хранит электронные версии произведений, а лишь предоставляет доступ к создаваемому пользователями каталогу ссылок на торрент-файлы, которые содержат только списки хеш-сумм

[Профиль] [ЛС]
Показать сообщения:    
Ответить на тему

Текущее время: Сегодня 07:56

Часовой пояс: GMT + 4



Вы не можете начинать темы
Вы не можете отвечать на сообщения
Вы не можете редактировать свои сообщения
Вы не можете удалять свои сообщения
Вы не можете голосовать в опросах
Вы не можете прикреплять файлы к сообщениям
Вы не можете скачивать файлы