Крепкий орешек 2 / Die Hard 2 (Ренни Харлин / Renny Harlin) [1990, США, Боевик, триллер, криминал, BDRip 1080p] Dub + 8х MVO + 4х AVO + 2х VO + Ukr (MVO (1+1), DVO (ICTV)) + Sub Rus, Eng + Original Eng + Comm

Ответить на тему
 
Автор Сообщение

user ®

Стаж: 7 лет 7 месяцев

Сообщений: 20008

Пост Пост: #1 от 28-Июл-2013 07:55

[Цитировать]

Крепкий орешек 2
Die Hard 2

«Yippee Ki Yay, All over again!»
Страна: США
Жанр: Боевик, триллер, криминал
Год выпуска: 1990
Продолжительность: 02:03:23
Перевод: Профессиональный (дублированный)
Оригинальная аудиодорожка: английский
Cубтитры: Russian (Blu-ray CEE), Russian (Киномания), Russian, Russian (Forced), English
Режиссер: Ренни Харлин / Renny Harlin
В ролях: Брюс Уиллис, Бонни Беделиа, Уильям Атертон, Уильям Сэдлер, Reginald VelJohnson, Франко Неро, Джон Амос, Дэннис Франц, Арт Эванс, Фред Далтон Томпсон, Том Бауэр, Шила МакКарти, Дон Харви, Tony Ganios, Питер Нельсон, Роберт Патрик, Майкл Каннингэм, Джон Легуизамо, Том Верика, Джон Костелло, Вонди Куртис-Холл
Описание: В канун Рождества группа террористов захватила международный аэропорт и теперь удерживает тысячи путешествующих в качестве заложников. Террористы — банда отступников из первоклассно вооруженных коммандос, возглавляемых одержимым жестокостью офицером. Их цель — спасти наркобарона.
Банда подготовлена ко всевозможным случайностям, за исключением одной — встречи с Джоном Макклейном. Брюс Уиллис возвращается в роли супергероя-полицейского, который сражается не только с террористами, но и с некомпетентным шефом полиции аэропорта, тупоголовым начальником антитеррористического подразделения и страшным снежным бураном.
Заложники мечутся, смертельно испуганные и растерянные. А Джон Макклейн ведет схватку и со временем. Его жена находится в одном из самолетов, кружащих над аэропортом. А топливо — на пределе…
Сэмпл: http://yadi.sk/d/7OABwzMV78qOa
Релиз: by Skazhutin
Качество: BDRip | Контейнер: MKV | Рип: DON!
Видео: 1920x812 at 23.976 fps, x264@L4.1, ~12860 kbps avg
Аудио: Russian: 48 kHz, DTS, 3/2 (L,C,R,l,r) + LFE ch, ~768.00 kbps avg |Дубляж, Blu-ray CEE|
Аудио: Russian: 48 kHz, DTS, 3/2 (L,C,R,l,r) + LFE ch, ~768.00 kbps avg |Многоголосый закадровый, ОРТ|
Аудио: Russian: 48 kHz, DTS, 3/2 (L,C,R,l,r) + LFE ch, ~1536.00 kbps avg |Многоголосый закадровый, Киномания|
Аудио: Russian: 48 kHz, DTS, 3/2 (L,C,R,l,r) + LFE ch, ~1536.00 kbps avg |Многоголосый закадровый, Карусель/Супербит|
Аудио: Russian: 48 kHz, AC3, 3/2 (L,C,R,l,r) + LFE ch, ~448.00 kbps avg |Многоголосый закадровый, Киномания/Домашнее Видео|
Аудио: Russian: 48 kHz, AC3, 3/2 (L,C,R,l,r) + LFE ch, ~384.00 kbps avg |Многоголосый закадровый, НТВ+|
Аудио: Russian: 48 kHz, AC3, 2/0 (L,R) ch, ~192.00 kbps avg |Многоголосый закадровый, Гемини R5|
Аудио: Russian: 48 kHz, AC3, 2/0 (L,R) ch, ~192.00 kbps avg |Многоголосый закадровый, Премьер Видео Фильм|
Аудио: Russian: 48 kHz, AC3, 2/0 (L,R) ch, ~192.00 kbps avg |Многоголосый закадровый, Лазер Видео|
Аудио: Russian: 48 kHz, DTS, 3/2 (L,C,R,l,r) + LFE ch, ~1536.00 kbps avg |Одноголосый закадровый, А.Гаврилов|
Аудио: Russian: 48 kHz, DTS, 3/2 (L,C,R,l,r) + LFE ch, ~1536.00 kbps avg |Одноголосый закадровый, Ю.Живов|
Аудио: Russian: 48 kHz, DTS, 3/2 (L,C,R,l,r) + LFE ch, ~1536.00 kbps avg |Одноголосый закадровый, В.Горчаков|
Аудио: Russian: 48 kHz, DTS, 3/2 (L,C,R,l,r) + LFE ch, ~1536.00 kbps avg |Одноголосый закадровый, М.Иванов|
Аудио: Russian: 48 kHz, AC3, 2/0 (L,R) ch, ~192.00 kbps avg |Одноголосый закадровый, Петербуржец|
Аудио: Russian: 48 kHz, AC3, 2/0 (L,R) ch, ~192.00 kbps avg |Одноголосый закадровый, Неизвестный|
Аудио: Ukrainian: 48 kHz, AC3, 3/2 (L,C,R,l,r) + LFE ch, ~448.00 kbps avg |Многоголосый закадровый, 1+1|
Аудио: Ukrainian: 48 kHz, AC3, 2/0 (L,R) ch, ~192.00 kbps avg |Двухголосый закадровый, ICTV|
Аудио: English: 48 kHz, DTS, 3/2 (L,C,R,l,r) + LFE ch, ~1536 kbps avg
Аудио: English: 48 kHz, AC3, 2/0 (L,R) ch, ~224.00 kbps avg |Commentary by Director Renny Harlin|
Формат субтитров: softsub (SRT)-

MediaInfo

Общее
Уникальный идентификатор                 : 174899650098223160656742438985854175790 (0x83947284CA0670E3B070F46F967D4A2E)
Полное имя                               : Q:\Фильмы HD\Die Hard.2.1990.1080p.BluRay.15xRus.2xUkr.Eng.HDCLUB.mkv
Формат                                   : Matroska
Версия формата                           : Version 4 / Version 2
Размер файла                             : 23,8 Гбайт
Продолжительность                        : 2 ч. 3 м.
Общий поток                              : 27,6 Мбит/сек
Название фильма                          : Die Hard 2 (1990) - Release for HDCLUB
Дата кодирования                         : UTC 2013-07-22 17:17:16
Программа кодирования                    : mkvmerge v6.2.0 ('Promised Land') built on Apr 28 2013 12:22:01
Библиотека кодирования                   : libebml v1.3.0 + libmatroska v1.4.0
Attachment                               : Yes
Видео
Идентификатор                            : 1
Формат                                   : AVC
Формат/Информация                        : Advanced Video Codec
Профиль формата                          : High@L4.1
Параметр CABAC формата                   : Да
Параметр ReFrames формата                : 5 кадров
Идентификатор кодека                     : V_MPEG4/ISO/AVC
Продолжительность                        : 2 ч. 3 м.
Битрейт                                  : 12,3 Мбит/сек
Ширина                                   : 1920 пикселей
Высота                                   : 812 пикселей
Соотношение сторон                       : 2,35:1
Частота кадров                           : 23,976 кадра/сек
Цветовое пространство                    : YUV
Субдискретизация насыщенности            : 4:2:0
Битовая глубина                          : 8 бит
Тип развёртки                            : Прогрессивная
Бит/(Пиксели*Кадры)                      : 0.330
Размер потока                            : 10,6 Гбайт (45%)
Заголовок                                : Release for HDCLUB
Библиотека кодирования                   : x264 core 129 r2230kMod 1cffe9f
Настройки программы                      : cabac=1 / ref=5 / deblock=1:-3:-3 / analyse=0x3:0x113 / me=umh / subme=9 / psy=1 / fade_compensate=0.00 / psy_rd=1.10:0.00 / mixed_ref=1 / me_range=16 / chroma_me=1 / trellis=2 / 8x8dct=1 / cqm=0 / deadzone=21,11 / fast_pskip=0 / chroma_qp_offset=-2 / threads=6 / lookahead_threads=1 / sliced_threads=0 / nr=0 / decimate=0 / interlaced=0 / bluray_compat=0 / constrained_intra=0 / bframes=8 / b_pyramid=2 / b_adapt=2 / b_bias=0 / direct=3 / weightb=1 / open_gop=0 / weightp=2 / keyint=250 / keyint_min=23 / scenecut=40 / intra_refresh=0 / rc_lookahead=40 / rc=crf / mbtree=1 / crf=18.0000 / qcomp=0.75 / qpmin=0 / qpmax=69 / qpstep=4 / ip_ratio=1.30 / aq=1:0.80
Язык                                     : English
Default                                  : Да
Forced                                   : Нет
Аудио #1
Идентификатор                            : 2
Формат                                   : DTS
Формат/Информация                        : Digital Theater Systems
Идентификатор кодека                     : A_DTS
Продолжительность                        : 2 ч. 3 м.
Вид битрейта                             : Постоянный
Битрейт                                  : 755 Кбит/сек
Каналы                                   : 6 каналов
Расположение каналов                     : Front: L C R, Side: L R, LFE
Частота                                  : 48,0 КГц
Битовая глубина                          : 24 бит
Метод сжатия                             : С потерями
Размер потока                            : 666 Мбайт (3%)
Заголовок                                : MVO, ORT
Язык                                     : Russian
Default                                  : Да
Forced                                   : Нет
Аудио #2
Идентификатор                            : 3
Формат                                   : DTS
Формат/Информация                        : Digital Theater Systems
Идентификатор кодека                     : A_DTS
Продолжительность                        : 2 ч. 3 м.
Вид битрейта                             : Постоянный
Битрейт                                  : 755 Кбит/сек
Каналы                                   : 6 каналов
Расположение каналов                     : Front: L C R, Side: L R, LFE
Частота                                  : 48,0 КГц
Битовая глубина                          : 24 бит
Метод сжатия                             : С потерями
Размер потока                            : 666 Мбайт (3%)
Заголовок                                : Dub, Blu-ray CEE
Язык                                     : Russian
Default                                  : Нет
Forced                                   : Нет
Аудио #3
Идентификатор                            : 4
Формат                                   : DTS
Формат/Информация                        : Digital Theater Systems
Идентификатор кодека                     : A_DTS
Продолжительность                        : 2 ч. 3 м.
Вид битрейта                             : Постоянный
Битрейт                                  : 1510 Кбит/сек
Каналы                                   : 6 каналов
Расположение каналов                     : Front: L C R, Side: L R, LFE
Частота                                  : 48,0 КГц
Битовая глубина                          : 16 бит
Метод сжатия                             : С потерями
Размер потока                            : 1,30 Гбайт (5%)
Заголовок                                : MVO, Kinomania
Язык                                     : Russian
Default                                  : Нет
Forced                                   : Нет
Аудио #4
Идентификатор                            : 5
Формат                                   : DTS
Формат/Информация                        : Digital Theater Systems
Идентификатор кодека                     : A_DTS
Продолжительность                        : 2 ч. 3 м.
Вид битрейта                             : Постоянный
Битрейт                                  : 1510 Кбит/сек
Каналы                                   : 6 каналов
Расположение каналов                     : Front: L C R, Side: L R, LFE
Частота                                  : 48,0 КГц
Битовая глубина                          : 16 бит
Метод сжатия                             : С потерями
Размер потока                            : 1,30 Гбайт (5%)
Заголовок                                : MVO, Karusel/Superbit
Язык                                     : Russian
Default                                  : Нет
Forced                                   : Нет
Аудио #5
Идентификатор                            : 6
Формат                                   : AC-3
Формат/Информация                        : Audio Coding 3
Расширение режима                        : CM (complete main)
Идентификатор кодека                     : A_AC3
Продолжительность                        : 2 ч. 3 м.
Вид битрейта                             : Постоянный
Битрейт                                  : 448 Кбит/сек
Каналы                                   : 6 каналов
Расположение каналов                     : Front: L C R, Side: L R, LFE
Частота                                  : 48,0 КГц
Битовая глубина                          : 16 бит
Метод сжатия                             : С потерями
Размер потока                            : 395 Мбайт (2%)
Заголовок                                : MVO, Kinomania/Home Video
Язык                                     : Russian
Default                                  : Нет
Forced                                   : Нет
Аудио #6
Идентификатор                            : 7
Формат                                   : AC-3
Формат/Информация                        : Audio Coding 3
Расширение режима                        : CM (complete main)
Идентификатор кодека                     : A_AC3
Продолжительность                        : 2 ч. 3 м.
Вид битрейта                             : Постоянный
Битрейт                                  : 384 Кбит/сек
Каналы                                   : 6 каналов
Расположение каналов                     : Front: L C R, Side: L R, LFE
Частота                                  : 48,0 КГц
Битовая глубина                          : 16 бит
Метод сжатия                             : С потерями
Размер потока                            : 339 Мбайт (1%)
Заголовок                                : MVO, NTV+
Язык                                     : Russian
Default                                  : Нет
Forced                                   : Нет
Аудио #7
Идентификатор                            : 8
Формат                                   : AC-3
Формат/Информация                        : Audio Coding 3
Расширение режима                        : CM (complete main)
Идентификатор кодека                     : A_AC3
Продолжительность                        : 2 ч. 3 м.
Вид битрейта                             : Постоянный
Битрейт                                  : 192 Кбит/сек
Каналы                                   : 2 канала
Расположение каналов                     : Front: L R
Частота                                  : 48,0 КГц
Битовая глубина                          : 16 бит
Метод сжатия                             : С потерями
Размер потока                            : 169 Мбайт (1%)
Заголовок                                : MVO, Gemini/R5
Язык                                     : Russian
Default                                  : Нет
Forced                                   : Нет
Аудио #8
Идентификатор                            : 9
Формат                                   : AC-3
Формат/Информация                        : Audio Coding 3
Расширение режима                        : CM (complete main)
Идентификатор кодека                     : A_AC3
Продолжительность                        : 2 ч. 3 м.
Вид битрейта                             : Постоянный
Битрейт                                  : 192 Кбит/сек
Каналы                                   : 2 канала
Расположение каналов                     : Front: L R
Частота                                  : 48,0 КГц
Битовая глубина                          : 16 бит
Метод сжатия                             : С потерями
Размер потока                            : 169 Мбайт (1%)
Заголовок                                : MVO, Premier Video Film
Язык                                     : Russian
Default                                  : Нет
Forced                                   : Нет
Аудио #9
Идентификатор                            : 10
Формат                                   : AC-3
Формат/Информация                        : Audio Coding 3
Расширение режима                        : CM (complete main)
Идентификатор кодека                     : A_AC3
Продолжительность                        : 2 ч. 3 м.
Вид битрейта                             : Постоянный
Битрейт                                  : 192 Кбит/сек
Каналы                                   : 2 канала
Расположение каналов                     : Front: L R
Частота                                  : 48,0 КГц
Битовая глубина                          : 16 бит
Метод сжатия                             : С потерями
Размер потока                            : 169 Мбайт (1%)
Заголовок                                : MVO, Lazer Video
Язык                                     : Russian
Default                                  : Нет
Forced                                   : Нет
Аудио #10
Идентификатор                            : 11
Формат                                   : DTS
Формат/Информация                        : Digital Theater Systems
Идентификатор кодека                     : A_DTS
Продолжительность                        : 2 ч. 3 м.
Вид битрейта                             : Постоянный
Битрейт                                  : 1510 Кбит/сек
Каналы                                   : 6 каналов
Расположение каналов                     : Front: L C R, Side: L R, LFE
Частота                                  : 48,0 КГц
Битовая глубина                          : 16 бит
Метод сжатия                             : С потерями
Размер потока                            : 1,30 Гбайт (5%)
Заголовок                                : VO, Gavrilov
Язык                                     : Russian
Default                                  : Нет
Forced                                   : Нет
Аудио #11
Идентификатор                            : 12
Формат                                   : DTS
Формат/Информация                        : Digital Theater Systems
Идентификатор кодека                     : A_DTS
Продолжительность                        : 2 ч. 3 м.
Вид битрейта                             : Постоянный
Битрейт                                  : 1510 Кбит/сек
Каналы                                   : 6 каналов
Расположение каналов                     : Front: L C R, Side: L R, LFE
Частота                                  : 48,0 КГц
Битовая глубина                          : 16 бит
Метод сжатия                             : С потерями
Размер потока                            : 1,30 Гбайт (5%)
Заголовок                                : VO, Jivov
Язык                                     : Russian
Default                                  : Нет
Forced                                   : Нет
Аудио #12
Идентификатор                            : 13
Формат                                   : DTS
Формат/Информация                        : Digital Theater Systems
Идентификатор кодека                     : A_DTS
Продолжительность                        : 2 ч. 3 м.
Вид битрейта                             : Постоянный
Битрейт                                  : 1510 Кбит/сек
Каналы                                   : 6 каналов
Расположение каналов                     : Front: L C R, Side: L R, LFE
Частота                                  : 48,0 КГц
Битовая глубина                          : 16 бит
Метод сжатия                             : С потерями
Размер потока                            : 1,30 Гбайт (5%)
Заголовок                                : VO, Gorchakov
Язык                                     : Russian
Default                                  : Нет
Forced                                   : Нет
Аудио #13
Идентификатор                            : 14
Формат                                   : DTS
Формат/Информация                        : Digital Theater Systems
Идентификатор кодека                     : A_DTS
Продолжительность                        : 2 ч. 3 м.
Вид битрейта                             : Постоянный
Битрейт                                  : 1510 Кбит/сек
Каналы                                   : 6 каналов
Расположение каналов                     : Front: L C R, Side: L R, LFE
Частота                                  : 48,0 КГц
Битовая глубина                          : 16 бит
Метод сжатия                             : С потерями
Размер потока                            : 1,30 Гбайт (5%)
Заголовок                                : VO, Ivanov
Язык                                     : Russian
Default                                  : Нет
Forced                                   : Нет
Аудио #14
Идентификатор                            : 15
Формат                                   : AC-3
Формат/Информация                        : Audio Coding 3
Расширение режима                        : CM (complete main)
Идентификатор кодека                     : A_AC3
Продолжительность                        : 2 ч. 3 м.
Вид битрейта                             : Постоянный
Битрейт                                  : 192 Кбит/сек
Каналы                                   : 2 канала
Расположение каналов                     : Front: L R
Частота                                  : 48,0 КГц
Битовая глубина                          : 16 бит
Метод сжатия                             : С потерями
Размер потока                            : 169 Мбайт (1%)
Заголовок                                : VO, Peterburzhetc
Язык                                     : Russian
Default                                  : Нет
Forced                                   : Нет
Аудио #15
Идентификатор                            : 16
Формат                                   : AC-3
Формат/Информация                        : Audio Coding 3
Расширение режима                        : CM (complete main)
Идентификатор кодека                     : A_AC3
Продолжительность                        : 2 ч. 3 м.
Вид битрейта                             : Постоянный
Битрейт                                  : 192 Кбит/сек
Каналы                                   : 2 канала
Расположение каналов                     : Front: L R
Частота                                  : 48,0 КГц
Битовая глубина                          : 16 бит
Метод сжатия                             : С потерями
Размер потока                            : 169 Мбайт (1%)
Заголовок                                : VO
Язык                                     : Russian
Default                                  : Нет
Forced                                   : Нет
Аудио #16
Идентификатор                            : 17
Формат                                   : AC-3
Формат/Информация                        : Audio Coding 3
Расширение режима                        : CM (complete main)
Идентификатор кодека                     : A_AC3
Продолжительность                        : 2 ч. 3 м.
Вид битрейта                             : Постоянный
Битрейт                                  : 448 Кбит/сек
Каналы                                   : 6 каналов
Расположение каналов                     : Front: L C R, Side: L R, LFE
Частота                                  : 48,0 КГц
Битовая глубина                          : 16 бит
Метод сжатия                             : С потерями
Размер потока                            : 395 Мбайт (2%)
Заголовок                                : MVO, 1+1
Язык                                     : Ukrainian
Default                                  : Нет
Forced                                   : Нет
Аудио #17
Идентификатор                            : 18
Формат                                   : AC-3
Формат/Информация                        : Audio Coding 3
Расширение режима                        : CM (complete main)
Идентификатор кодека                     : A_AC3
Продолжительность                        : 2 ч. 3 м.
Вид битрейта                             : Постоянный
Битрейт                                  : 192 Кбит/сек
Каналы                                   : 2 канала
Расположение каналов                     : Front: L R
Частота                                  : 48,0 КГц
Битовая глубина                          : 16 бит
Метод сжатия                             : С потерями
Размер потока                            : 169 Мбайт (1%)
Заголовок                                : DVO, ICTV
Язык                                     : Ukrainian
Default                                  : Нет
Forced                                   : Нет
Аудио #18
Идентификатор                            : 19
Формат                                   : DTS
Формат/Информация                        : Digital Theater Systems
Идентификатор кодека                     : A_DTS
Продолжительность                        : 2 ч. 3 м.
Вид битрейта                             : Постоянный
Битрейт                                  : 1510 Кбит/сек
Каналы                                   : 6 каналов
Расположение каналов                     : Front: L C R, Side: L R, LFE
Частота                                  : 48,0 КГц
Битовая глубина                          : 24 бит
Метод сжатия                             : С потерями
Размер потока                            : 1,30 Гбайт (5%)
Язык                                     : English
Default                                  : Нет
Forced                                   : Нет
Аудио #19
Идентификатор                            : 20
Формат                                   : AC-3
Формат/Информация                        : Audio Coding 3
Расширение режима                        : CM (complete main)
Идентификатор кодека                     : A_AC3
Продолжительность                        : 2 ч. 3 м.
Вид битрейта                             : Постоянный
Битрейт                                  : 224 Кбит/сек
Каналы                                   : 2 канала
Расположение каналов                     : Front: L R
Частота                                  : 48,0 КГц
Битовая глубина                          : 16 бит
Метод сжатия                             : С потерями
Размер потока                            : 198 Мбайт (1%)
Заголовок                                : Commentary with director Renny Harlin
Язык                                     : English
Default                                  : Нет
Forced                                   : Нет
Текст #1
Идентификатор                            : 21
Формат                                   : UTF-8
Идентификатор кодека                     : S_TEXT/UTF8
Идентификатор кодека/Информация          : UTF-8 Plain Text
Язык                                     : Russian
Default                                  : Да
Forced                                   : Нет
Текст #2
Идентификатор                            : 22
Формат                                   : UTF-8
Идентификатор кодека                     : S_TEXT/UTF8
Идентификатор кодека/Информация          : UTF-8 Plain Text
Заголовок                                : Blu-ray CEE
Язык                                     : Russian
Default                                  : Нет
Forced                                   : Нет
Текст #3
Идентификатор                            : 23
Формат                                   : UTF-8
Идентификатор кодека                     : S_TEXT/UTF8
Идентификатор кодека/Информация          : UTF-8 Plain Text
Заголовок                                : Kinomania
Язык                                     : Russian
Default                                  : Нет
Forced                                   : Нет
Текст #4
Идентификатор                            : 24
Формат                                   : UTF-8
Идентификатор кодека                     : S_TEXT/UTF8
Идентификатор кодека/Информация          : UTF-8 Plain Text
Язык                                     : Russian
Default                                  : Нет
Forced                                   : Нет
Текст #5
Идентификатор                            : 25
Формат                                   : UTF-8
Идентификатор кодека                     : S_TEXT/UTF8
Идентификатор кодека/Информация          : UTF-8 Plain Text
Язык                                     : English
Default                                  : Нет
Forced                                   : Нет
Меню
00:00:00.000                             : en:Main Title: Merry Christmas!
00:06:14.582                             : en:The Church of Choice
00:08:14.535                             : en:At The Airport
00:12:15.693                             : en:Baggage Mishandling
00:16:21.438                             : en:Cabin Fever
00:18:32.694                             : en:The Colonel's Headquarters
00:19:32.128                             : en:A Chat with Lorenzo
00:23:22.734                             : en:Esperanza Enroute
00:25:09.925                             : en:Powell on the Line
00:27:03.246                             : en:Traffic Control
00:29:48.077                             : en:McClane Raises a Question
00:36:46.245                             : en:McClane Gets Evicted
00:39:14.768                             : en:Another Plan
00:40:02.775                             : en:Marvin
00:43:37.156                             : en:Shootout at the Skywalk
00:48:58.477                             : en:Closer Than 50 Yards
00:49:57.035                             : en:Paying The Penalty
00:52:30.730                             : en:Learning a Lesson
00:58:29.671                             : en:Aftermath
01:01:43.950                             : en:Thornberg Tunes In
01:02:39.921                             : en:The Anti-Terrorist Team
01:04:47.383                             : en:The Outer Marker
01:06:38.411                             : en:Thornberg Gets A Scoop
01:08:12.254                             : en:The Right Frequency
01:09:54.439                             : en:A New Position
01:10:59.755                             : en:The Falcon Is Landing
01:16:23.245                             : en:Emergency Exit
01:21:56.369                             : en:The Old Plans
01:23:27.210                             : en:The Old Church
01:25:40.885                             : en:The Raid
01:30:53.990                             : en:On Thin Ice
01:33:17.633                             : en:The Enemy Within
01:34:23.157                             : en:Thornberg Goes Live
01:41:09.688                             : en:The Getaway
01:42:31.854                             : en:Crash Positions
01:44:53.161                             : en:Hitching A Ride
01:46:36.430                             : en:Wing Walkers
01:49:13.255                             : en:Landing Lights
01:53:34.432                             : en:Holly!
01:56:08.711                             : en:End Titles (Let It Snow)

-

Скриншоты

-
Скачать

Скачать торрент!

Как скачивать? · Что такое торрент? · Рейтинг и ограничения

Сайт не распространяет и не хранит электронные версии произведений, а лишь предоставляет доступ к создаваемому пользователями каталогу ссылок на торрент-файлы, которые содержат только списки хеш-сумм

[Профиль] [ЛС]
Показать сообщения:    
Ответить на тему

Текущее время: Сегодня 18:14

Часовой пояс: GMT + 4



Вы не можете начинать темы
Вы не можете отвечать на сообщения
Вы не можете редактировать свои сообщения
Вы не можете удалять свои сообщения
Вы не можете голосовать в опросах
Вы не можете прикреплять файлы к сообщениям
Вы не можете скачивать файлы