Ледяной ветер / The Ice Storm (Энг Ли / Ang Lee) [1997, США, драма, BDRemux 1080p] DVO + AVO (Сербин) + Original (Eng) + Sub (Rus / Eng)

Ответить на тему
 
Автор Сообщение

user ®

Стаж: 7 лет 7 месяцев

Сообщений: 20008

Пост Пост: #1 от 28-Июл-2013 07:55

[Цитировать]

Ледяной ветер / The Ice Storm
«The American Dream was over. But the hangover was just beginning.»
- Страна: США
Студии: Canal+ Droits Audiovisuels, Fox Searchlight Pictures, Good Machine
Жанр: драма
Год выпуска: 1997
Продолжительность: 01:53:25
Перевод:
  • Профессиональный (двухголосый, закадровый) (Ирма Стефанова, Кирилл Сафронов)
  • Авторский (одноголосый закадровый) (Ю. Сербин)
Cубтитры: русские, английские SDH
Оригинальная аудиодорожка: английский-Режиссер: Энг Ли / Ang Lee
В ролях: Кевин Клайн (Kevin Kline), Джоан Аллен (Joan Allen), Сигурни Уивер (Sigourney Weaver), Генри Черни (Henry Czerny), Тоби Магуайр (Tobey Maguire), Кристина Риччи (Christina Ricci), Элайджа Вуд (Elijah Wood), Адам Хэнн-Берд (Adam Hann-Byrd), Дэвид Крамхолц (David Krumholtz), Джейми Шеридан (Jamey Sheridan), Кейт Бёртон (Kate Burton) и др.-Описание: Существует ли в мире семья, счастливая на сто процентов? Вероятно, нет. Ничто на нашей бренной земле не совершенно. И каждому приходится своими способами искать и личное счастье, и жизненное благополучие…
На дворе 1973 год: сексуальная революция в разгаре. Семейная пара — Бен и Елена, переживают переломный момент супружества. Глава семьи Бен спит с соседкой Джени, а его дочка Уэнди играет в сексуальные игры с соседскими ребятами — сыновьями папиной любовницы.
Елена подозревает мужа в измене. В канун Дня Благодарения погода внезапно портится, как и отношения всех героев. Приближается ледяной шторм, которому предстоит выступить судьей в запутанной игре человеческих страстей…
- -Тип релиза: BDRemux 1080p
Исходник: The Ice Storm 1997 1080p Blu-ray AVC DTS-HD MA 2.0 (thx violator99)
Источник: HDBits
Контейнер: MKV
Видео: MPEG-4 AVC Video / 28266 Mbps / 1080p / 23,976 fps / 16:9 / High Profile 4.1
Аудио #1: Russian: 48 kHz, AC3 Dolby Digital, 2/0 (L,R), ~192.00 kbps avg - [DVO]
Аудио #2: Russian: 48 kHz, AC3 Dolby Digital, 2/0 (L,R), ~192.00 kbps avg - [AVO, Ю. Сербин]
Аудио #3: English: DTS-HD Master Audio 2.0 / (48 kHz / 2094 kbps / 24-bit) (DTS Core: 5.1 / 48 kHz / 1509 kbps / 24-bit) - [Original]
Аудио #4: English: 48 kHz, AC3 Dolby Digital, 2/0 (L,R), ~192.00 kbps avg - [Audio commentary featuring Lee and producer-screenwriter James Schamus]
Формат субтитров: softsub (SRT)
Чаптеры: Сохранены оригинальные чаптеры с Blu-Ray (25 подписанных глав)
-

Скриншоты


-

MediaInfo

Format                                   : Matroska
Format version                           : Version 2
File size                                : 24.4 GiB
Duration                                 : 1h 53mn
Overall bit rate mode                    : Variable
Overall bit rate                         : 30.8 Mbps
Movie name                               : Arifis
Encoded date                             : UTC 2013-07-27 18:45:12
Writing application                      : mkvmerge v5.2.1 ('A Far Off Place') built on Jan  2 2012 23:21:10
Writing library                          : libebml v1.2.3 + libmatroska v1.3.0
Video
ID                                       : 1
Format                                   : AVC
Format/Info                              : Advanced Video Codec
Format profile                           : High@L4.1
Format settings, CABAC                   : Yes
Format settings, ReFrames                : 4 frames
Codec ID                                 : V_MPEG4/ISO/AVC
Duration                                 : 1h 53mn
Bit rate mode                            : Variable
Maximum bit rate                         : 37.0 Mbps
Width                                    : 1 920 pixels
Height                                   : 1 080 pixels
Display aspect ratio                     : 16:9
Frame rate mode                          : Constant
Frame rate                               : 23.976 fps
Color space                              : YUV
Chroma subsampling                       : 4:2:0
Bit depth                                : 8 bits
Scan type                                : Progressive
Title                                    : The Ice Storm (Arifis)
Default                                  : Yes
Forced                                   : No
Audio #1
ID                                       : 2
Format                                   : AC-3
Format/Info                              : Audio Coding 3
Mode extension                           : CM (complete main)
Format settings, Endianness              : Big
Codec ID                                 : A_AC3
Duration                                 : 1h 53mn
Bit rate mode                            : Constant
Bit rate                                 : 192 Kbps
Channel(s)                               : 2 channels
Channel positions                        : Front: L R
Sampling rate                            : 48.0 KHz
Bit depth                                : 16 bits
Compression mode                         : Lossy
Stream size                              : 156 MiB (1%)
Title                                    : AC3 2.0 @ 192 kbps - DVO, Stefanova, Safronov
Language                                 : Russian
Default                                  : Yes
Forced                                   : No
Audio #2
ID                                       : 3
Format                                   : AC-3
Format/Info                              : Audio Coding 3
Mode extension                           : CM (complete main)
Format settings, Endianness              : Big
Codec ID                                 : A_AC3
Duration                                 : 1h 53mn
Bit rate mode                            : Constant
Bit rate                                 : 192 Kbps
Channel(s)                               : 2 channels
Channel positions                        : Front: L R
Sampling rate                            : 48.0 KHz
Bit depth                                : 16 bits
Compression mode                         : Lossy
Stream size                              : 156 MiB (1%)
Title                                    : AC3 2.0 @ 192 kbps - AVO, Serbin
Language                                 : Russian
Default                                  : No
Forced                                   : No
Audio #3
ID                                       : 4
Format                                   : DTS
Format/Info                              : Digital Theater Systems
Format profile                           : MA / Core
Mode                                     : 16
Format settings, Endianness              : Big
Codec ID                                 : A_DTS
Duration                                 : 1h 53mn
Bit rate mode                            : Variable
Bit rate                                 : Unknown / 1 509 Kbps
Channel(s)                               : 2 channels
Channel positions                        : Front: L R
Sampling rate                            : 48.0 KHz
Bit depth                                : 24 bits
Compression mode                         : Lossless / Lossy
Title                                    : DTS-HD MA 2.0 Original @ 2094 kbps
Language                                 : English
Default                                  : No
Forced                                   : No
Audio #4
ID                                       : 5
Format                                   : AC-3
Format/Info                              : Audio Coding 3
Mode extension                           : CM (complete main)
Format settings, Endianness              : Big
Codec ID                                 : A_AC3
Duration                                 : 1h 53mn
Bit rate mode                            : Constant
Bit rate                                 : 192 Kbps
Channel(s)                               : 2 channels
Channel positions                        : Front: L R
Sampling rate                            : 48.0 KHz
Bit depth                                : 16 bits
Compression mode                         : Lossy
Stream size                              : 156 MiB (1%)
Title                                    : AC3 2.0 @ 192 kbps - Audio commentary featuring Lee and producer-screenwriter James Schamus
Language                                 : English
Default                                  : No
Forced                                   : No
Text #1
ID                                       : 6
Format                                   : UTF-8
Codec ID                                 : S_TEXT/UTF8
Codec ID/Info                            : UTF-8 Plain Text
Title                                    : Full Rus
Language                                 : Russian
Default                                  : No
Forced                                   : No
Text #2
ID                                       : 7
Format                                   : UTF-8
Codec ID                                 : S_TEXT/UTF8
Codec ID/Info                            : UTF-8 Plain Text
Title                                    : SDH Eng
Language                                 : English
Default                                  : No
Forced                                   : No
Menu
00:00:00.000                             : :1. Opening credits
00:04:50.873                             : :2. "It's existential"
00:06:35.520                             : :3. Phone call from Dad
00:10:25.416                             : :4. Dinner at the Carvers'
00:15:13.037                             : :5. New Canaan, Connecticut
00:19:52.608                             : :6. An empty swimming pool
00:21:27.286                             : :7. "You're boring me"
00:26:00.141                             : :8. Geometry and molecules
00:29:58.797                             : :9. Elena takes a ride
00:35:15.154                             : :10. "I'll show you mine..."
00:38:12.957                             : :11. Defrosting
00:40:17.915                             : :12. Back home for Thanksgiving
00:45:44.742                             : :13. "I'll be back"
00:49:03.774                             : :14. The Carvers' basement
00:53:11.771                             : :15. The mustache cup
00:57:20.228                             : :16. The key party
01:04:38.708                             : :17. Libbets and Francis, and Paul
01:10:02.656                             : :18. Invitations
01:15:10.422                             : :19. The ice storm
01:20:18.313                             : :20. "What shall the order be?"
01:28:50.825                             : :21. Elena and Jim
01:35:21.841                             : :22. Hazardous conditions
01:40:02.997                             : :23. "The door to the next world"
01:43:24.364                             : :24. "Good morning, ladies and gentelemen"
01:49:20.554                             : :25. End credits
-
Скачать

Скачать торрент!

Как скачивать? · Что такое торрент? · Рейтинг и ограничения

Сайт не распространяет и не хранит электронные версии произведений, а лишь предоставляет доступ к создаваемому пользователями каталогу ссылок на торрент-файлы, которые содержат только списки хеш-сумм

[Профиль] [ЛС]
Показать сообщения:    
Ответить на тему

Текущее время: Сегодня 01:49

Часовой пояс: GMT + 4



Вы не можете начинать темы
Вы не можете отвечать на сообщения
Вы не можете редактировать свои сообщения
Вы не можете удалять свои сообщения
Вы не можете голосовать в опросах
Вы не можете прикреплять файлы к сообщениям
Вы не можете скачивать файлы