Кремень (Алексей Мизгирев) [2007, криминальная драма, DVDRip-AVC]

Ответить на тему
 
Автор Сообщение

user ®

Стаж: 7 лет 7 месяцев

Сообщений: 20008

Пост Пост: #1 от 28-Июл-2013 02:45

[Цитировать]

Кремень- Жанр: криминальная драма
Год выпуска: 2007
Продолжительность: 01:22:02
Cубтитры: нет
Навигация по главам: есть
Режиссер: Алексей Мизгирев
В ролях: Евгений Антропов, Дмитрий Куличков, Анастасия Безбородова, Сергей Шеховцов, Карен Бадалов, Александр Голубев, Татьяна Насташевская, Олег Васильков, Сахат Дурсунов, Александр Скотников, Вероника Ким, Олег Билик, Алексей Агрызков, Виктор Алферов, Павел Мирзоев
Описание: Современная Москва — глянцевая, европейская, жесткая. Город надежд и обманутых ожиданий. Здесь действует закон выживания. Побеждает сильнейший. Антон приезжает в столицу за любимой девушкой. Она отвергает его. Но он не привык отступать. Ему приходиться стать своим в чужом городе. Ради своей цели Антон готов на все. У него — свои правила. Он — "Кремень".
Доп. информация:
IMDB 6.5/10
Награды:
• 2007 г. - Приз за лучший дебют на ОРКФ "Кинотавр" в Сочи (Алексей Мизгирев).
• 2007 г. - Приз им. Г. Горина за лучший сценарий на ОРКФ "Кинотавр" в Сочи (Алексей Мизгирев).
• 2007 г. - Гран-при на МФ фильмов о правах человека "Сталкер" в Москве (Алексей Мизгирев).
• 2007 г. - Приз жюри на МКФ в Марокко (Алексей Мизгирев).
• 2007 г. - Приз им. Р. Фассбиндера на МКФ в Мангейме (Алексей Мизгирев).
Семпл: http://multi-up.com/888643
Качество видео: DVDRip-AVC
Формат видео: MKV
Формат аудио: AC3
Видео: AVC x264, 710*554@1010*554 (1.82:1), 25 fps, 2087 kbit/s avg
Аудио: AC3, 48 khz, 6 ch, 448 kbit/s

Log x264

raw [info]: 710x554p 64:45 @ 25/1 fps (cfr)
x264 [info]: using SAR=64/45
x264 [info]: using cpu capabilities: MMX2 SSE2Fast SSSE3 SSE4.2 AVX
x264 [info]: profile High, level 4.0
x264 [info]: frame I:651 Avg QP:15.57 size: 47702
x264 [info]: frame P:25560 Avg QP:17.32 size: 19239
x264 [info]: frame B:96844 Avg QP:18.38 size: 7861
x264 [info]: consecutive B-frames: 1.1% 2.0% 7.4% 18.6% 17.4% 44.3% 5.3% 1.5% 1.3% 0.4% 0.3% 0.2% 0.0% 0.0% 0.0% 0.0% 0.0%
x264 [info]: mb I I16..4: 6.0% 80.5% 13.5%
x264 [info]: mb P I16..4: 0.7% 9.4% 1.2% P16..4: 32.1% 36.7% 14.2% 1.3% 0.1% skip: 4.4%
x264 [info]: mb B I16..4: 0.1% 0.9% 0.2% B16..8: 34.2% 24.1% 4.6% direct: 7.8% skip:28.0% L0:41.0% L1:44.5% BI:14.5%
x264 [info]: 8x8 transform intra:81.0% inter:60.0%
x264 [info]: direct mvs spatial:100.0% temporal:0.0%
x264 [info]: coded y,uvDC,uvAC intra: 90.7% 87.5% 68.8% inter: 31.5% 34.4% 10.4%
x264 [info]: i16 v,h,dc,p: 55% 10% 4% 31%
x264 [info]: i8 v,h,dc,ddl,ddr,vr,hd,vl,hu: 13% 7% 7% 9% 13% 16% 11% 14% 11%
x264 [info]: i4 v,h,dc,ddl,ddr,vr,hd,vl,hu: 18% 8% 20% 6% 10% 13% 8% 10% 8%
x264 [info]: i8c dc,h,v,p: 40% 20% 23% 16%
x264 [info]: Weighted P-Frames: Y:8.5% UV:5.0%
x264 [info]: ref P L0: 38.4% 10.1% 18.2% 6.0% 5.7% 3.8% 3.9% 2.1% 2.2% 1.7% 1.8% 1.4% 1.4% 1.1% 1.3% 0.8%
x264 [info]: ref B L0: 72.7% 11.2% 4.3% 2.5% 1.8% 1.6% 1.3% 0.9% 0.7% 0.7% 0.6% 0.6% 0.5% 0.3% 0.2%
x264 [info]: ref B L1: 94.1% 5.9%
x264 [info]: kb/s:2087.01

MI

Общее
Уникальный идентификатор : 195665152881978940996821872330244222209 (0x9333BCD9F68526139919E4B7D57DED01)
Полное имя : Kremen.2007.DVDRip.x264.ac3.[***].mkv
Формат : Matroska
Версия формата : Version 4 / Version 2
Размер файла : 1,45 Гбайт
Продолжительность : 1 ч. 22 м.
Общий поток : 2537 Кбит/сек
Дата кодирования : UTC 2013-07-27 15:32:15
Программа кодирования : mkvmerge v6.2.0 ('Promised Land') built on Apr 28 2013 12:22:01
Библиотека кодирования : libebml v1.3.0 + libmatroska v1.4.0
Attachment : Yes
Видео
Идентификатор : 1
Формат : AVC
Формат/Информация : Advanced Video Codec
Профиль формата : High@L4.0
Параметр CABAC формата : Да
Параметр ReFrames формата : 16 кадров
Идентификатор кодека : V_MPEG4/ISO/AVC
Продолжительность : 1 ч. 22 м.
Битрейт : 2039 Кбит/сек
Ширина : 710 пикселей
Высота : 554 пикселя
Соотношение сторон : 1,85:1
Режим частоты кадров : Постоянный
Частота кадров : 25,000 кадров/сек
Цветовое пространство : YUV
Субдискретизация насыщенности : 4:2:0
Битовая глубина : 8 бит
Тип развёртки : Прогрессивная
Бит/(Пиксели*Кадры) : 0.207
Размер потока : 1,17 Гбайт (80%)
Библиотека кодирования : x264 core 135 r2345kMod f0c1c53
Настройки программы : cabac=1 / ref=16 / deblock=1:-2:-1 / analyse=0x3:0x133 / me=umh / subme=11 / psy=1 / fade_compensate=0.00 / psy_rd=1.10:0.00 / mixed_ref=1 / me_range=32 / chroma_me=1 / trellis=2 / 8x8dct=1 / cqm=0 / deadzone=21,11 / fast_pskip=0 / chroma_qp_offset=-2 / threads=12 / lookahead_threads=3 / sliced_threads=0 / nr=0 / decimate=1 / interlaced=0 / bluray_compat=0 / constrained_intra=0 / bframes=16 / b_pyramid=2 / b_adapt=2 / b_bias=0 / direct=3 / weightb=1 / open_gop=0 / weightp=2 / keyint=250 / keyint_min=25 / scenecut=40 / intra_refresh=0 / rc=crf / mbtree=0 / crf=17.9000 / qcomp=0.60 / qpmin=0 / qpmax=69 / qpstep=4 / ip_ratio=1.40 / pb_ratio=1.20 / aq=1:1.10
Язык : Russian
Default : Да
Forced : Нет
Коэффициенты матрицы : BT.601
Аудио
Идентификатор : 2
Формат : AC-3
Формат/Информация : Audio Coding 3
Расширение режима : CM (complete main)
Параметр Endianness формата : Big
Идентификатор кодека : A_AC3
Продолжительность : 1 ч. 22 м.
Вид битрейта : Постоянный
Битрейт : 448 Кбит/сек
Каналы : 6 каналов
Расположение каналов : Front: L C R, Side: L R, LFE
Частота : 48,0 КГц
Битовая глубина : 16 бит
Метод сжатия : С потерями
Размер потока : 263 Мбайт (18%)
Язык : Russian
Default : Да
Forced : Нет
Меню
00:00:00.000 : :chapter 1
00:00:10.560 : :chapter 2
. . .
01:19:01.600 : :chapter 13
Релиз группы
Скачать

Скачать торрент!

Как скачивать? · Что такое торрент? · Рейтинг и ограничения

Сайт не распространяет и не хранит электронные версии произведений, а лишь предоставляет доступ к создаваемому пользователями каталогу ссылок на торрент-файлы, которые содержат только списки хеш-сумм

[Профиль] [ЛС]
Показать сообщения:    
Ответить на тему

Текущее время: Сегодня 04:13

Часовой пояс: GMT + 4



Вы не можете начинать темы
Вы не можете отвечать на сообщения
Вы не можете редактировать свои сообщения
Вы не можете удалять свои сообщения
Вы не можете голосовать в опросах
Вы не можете прикреплять файлы к сообщениям
Вы не можете скачивать файлы