Обливион / Oblivion (Джозеф Косински / Joseph Kosinski) [2013, США, фантастика, боевик, триллер, приключения, мелодрама, BDRip-AVC] Dub + Original Eng, Sub (Rus, Eng)

Ответить на тему
 
Автор Сообщение

user ®

Стаж: 7 лет 7 месяцев

Сообщений: 20008

Пост Пост: #1 от 27-Июл-2013 17:15

[Цитировать]

Обливион / Oblivion
«Earth is a memory worth fighting for.»
Страна: США
Жанр: фантастика, боевик, триллер, приключения, мелодрама.
Год выпуска: 2013
Продолжительность: 02:04:42
Перевод: Профессиональный (дублированный)
Cубтитры: русские, английские.
Оригинальная аудиодорожка: английский
Режиссер: Джозеф Косински / Joseph Kosinski
В ролях: Том Круз, Ольга Куриленко, Морган Фримен, Андреа Райзборо, Николай Костер-Валдау, Мелисса Лео, Зои Белл, Эбигейл Лоу, Изабель Лоу, Дэвид Мэдисон.
Описание: Можно ли скучать по месту, в котором никогда не был, мечтать о девушке, которую никогда не видел? Добро пожаловать в будущее! Мы больше не можем называть Землю своим домом. Мы выиграли войну, но не смогли сохранить планету…-[url=http://***/forum/viewtopic.php?t=1460328] [/url]-Качество видео: BDRip-AVC (Oblivion.2013.1080p.BluRay.AVC.DTS-HD.MA.7.1)
Формат видео: MKV
Видео: 1280x534 (2.40:1), 4110 kbps, 23,976 fps, 0.251 bpp
Аудио 1: 48 kHz, AC3 Dolby Digital, 3/2 (L,C,R,l,r) + LFE ch, ~448 kbps / Dub
Аудио 2: 48 kHz, AC3 Dolby Digital, 3/2 (L,C,R,l,r) + LFE ch, ~448 kbps / Eng
Cубтитры: русские, английские.
Навигация по главам: есть
......................................Source........................................................................BDrip-AVC.......................................


MediaInfo

General
Unique ID : 193843965712989897584000168607661716078 (0x91D4FD64394313D5B19C29ED6F88726E)
Complete name : D:\Oblivion.2013.BDrip-AVC.Froloff777.mkv
Format : Matroska
Format version : Version 4 / Version 2
File size : 4.36 GiB
Duration : 2h 4mn
Overall bit rate : 5 008 Kbps
Movie name : Обливион / Oblivion [2013 г.] | Рип от L | Unionpeer
Encoded date : UTC 2013-07-25 18:28:21
Writing application : mkvmerge v6.1.0 ('Old Devil') built on Mar 4 2013 09:10:42
Writing library : libebml v1.3.0 + libmatroska v1.4.0
Video
ID : 1
Format : AVC
Format/Info : Advanced Video Codec
Format profile : High@L4.1
Format settings, CABAC : Yes
Format settings, ReFrames : 10 frames
Codec ID : V_MPEG4/ISO/AVC
Duration : 2h 4mn
Bit rate : 4 110 Kbps
Width : 1 280 pixels
Height : 534 pixels
Display aspect ratio : 2.40:1
Frame rate mode : Constant
Frame rate : 23.976 fps
Color space : YUV
Chroma subsampling : 4:2:0
Bit depth : 8 bits
Scan type : Progressive
Bits/(Pixel*Frame) : 0.251
Stream size : 3.49 GiB (80%)
Title : Oblivion
Writing library : x264 core 130 r2273 b3065e6
Encoding settings : cabac=1 / ref=10 / deblock=1:-3:-2 / analyse=0x3:0x113 / me=umh / subme=11 / psy=1 / psy_rd=1.00:0.03 / mixed_ref=1 / me_range=32 / chroma_me=1 / trellis=2 / 8x8dct=1 / cqm=0 / deadzone=21,11 / fast_pskip=0 / chroma_qp_offset=-3 / threads=6 / lookahead_threads=1 / sliced_threads=0 / nr=0 / decimate=0 / interlaced=0 / bluray_compat=0 / constrained_intra=0 / bframes=10 / b_pyramid=2 / b_adapt=2 / b_bias=0 / direct=3 / weightb=1 / open_gop=0 / weightp=2 / keyint=250 / keyint_min=24 / scenecut=40 / intra_refresh=0 / rc_lookahead=60 / rc=2pass / mbtree=0 / bitrate=4110 / ratetol=1.0 / qcomp=0.65 / qpmin=0 / qpmax=69 / qpstep=4 / cplxblur=20.0 / qblur=0.5 / vbv_maxrate=50000 / vbv_bufsize=62500 / nal_hrd=none / ip_ratio=1.40 / pb_ratio=1.30 / aq=2:0.90
Language : English
Default : Yes
Forced : No
Audio #1
ID : 2
Format : AC-3
Format/Info : Audio Coding 3
Mode extension : CM (complete main)
Format settings, Endianness : Big
Codec ID : A_AC3
Duration : 2h 4mn
Bit rate mode : Constant
Bit rate : 448 Kbps
Channel(s) : 6 channels
Channel positions : Front: L C R, Side: L R, LFE
Sampling rate : 48.0 KHz
Bit depth : 16 bits
Compression mode : Lossy
Stream size : 400 MiB (9%)
Title : Дублированный
Language : Russian
Default : Yes
Forced : Yes
Audio #2
ID : 3
Format : AC-3
Format/Info : Audio Coding 3
Mode extension : CM (complete main)
Format settings, Endianness : Big
Codec ID : A_AC3
Duration : 2h 4mn
Bit rate mode : Constant
Bit rate : 448 Kbps
Channel(s) : 6 channels
Channel positions : Front: L C R, Side: L R, LFE
Sampling rate : 48.0 KHz
Bit depth : 16 bits
Compression mode : Lossy
Stream size : 400 MiB (9%)
Title : Оригинал
Language : English
Default : No
Forced : No
Text #1
ID : 4
Format : UTF-8
Codec ID : S_TEXT/UTF8
Codec ID/Info : UTF-8 Plain Text
Title : от Воронина
Language : Russian
Default : No
Forced : No
Text #2
ID : 5
Format : UTF-8
Codec ID : S_TEXT/UTF8
Codec ID/Info : UTF-8 Plain Text
Language : English
Default : No
Forced : No
Menu
00:00:00.000 : en:00:00:00.000
00:04:31.354 : en:00:04:31.354
00:12:51.813 : en:00:12:51.813
00:21:25.284 : en:00:21:25.284
00:27:20.138 : en:00:27:20.138
00:35:30.337 : en:00:35:30.337
00:40:06.779 : en:00:40:06.779
00:46:16.023 : en:00:46:16.023
00:52:22.181 : en:00:52:22.181
01:01:59.716 : en:01:01:59.716
01:07:59.409 : en:01:07:59.409
01:16:25.831 : en:01:16:25.831
01:22:08.173 : en:01:22:08.173
01:25:31.752 : en:01:25:31.752
01:30:22.542 : en:01:30:22.542
01:36:30.368 : en:01:36:30.368
01:40:29.106 : en:01:40:29.106
01:46:27.423 : en:01:46:27.423
01:53:05.320 : en:01:53:05.320
01:58:23.847 : en:01:58:23.847

x264

x264 [info]: frame I:1486 Avg QP:13.20 size:134811 PSNR Mean Y:49.43 U:52.33 V:52.01 Avg:50.10 Global:49.72
x264 [info]: frame P:42082 Avg QP:16.15 size: 41226 PSNR Mean Y:47.42 U:51.42 V:50.50 Avg:48.21 Global:47.69
x264 [info]: frame B:135827 Avg QP:17.89 size: 14052 PSNR Mean Y:46.41 U:50.38 V:49.63 Avg:47.14 Global:46.60
x264 [info]: consecutive B-frames: 3.6% 6.2% 9.0% 12.9% 14.5% 41.8% 6.2% 1.9% 1.4% 1.1% 1.4%
x264 [info]: mb I I16..4: 13.5% 67.8% 18.8%
x264 [info]: mb P I16..4: 1.6% 14.2% 1.4% P16..4: 28.4% 34.8% 14.9% 0.0% 0.0% skip: 4.7%
x264 [info]: mb B I16..4: 0.2% 1.2% 0.1% B16..8: 35.0% 24.6% 5.2% direct: 6.8% skip:27.0% L0:46.1% L1:41.5% BI:12.4%
x264 [info]: 8x8 transform intra:79.8% inter:56.7%
x264 [info]: direct mvs spatial:97.4% temporal:2.6%
x264 [info]: coded y,uvDC,uvAC intra: 89.1% 88.2% 73.9% inter: 31.3% 31.2% 15.4%
x264 [info]: i16 v,h,dc,p: 43% 5% 9% 43%
x264 [info]: i8 v,h,dc,ddl,ddr,vr,hd,vl,hu: 11% 8% 9% 10% 13% 12% 13% 11% 14%
x264 [info]: i4 v,h,dc,ddl,ddr,vr,hd,vl,hu: 16% 8% 5% 9% 15% 12% 13% 10% 12%
x264 [info]: i8c dc,h,v,p: 49% 22% 14% 14%
x264 [info]: Weighted P-Frames: Y:6.9% UV:4.2%
x264 [info]: ref P L0: 44.3% 8.9% 19.7% 6.8% 6.4% 3.8% 4.0% 1.9% 2.2% 1.6% 0.4% 0.0%
x264 [info]: ref B L0: 64.7% 15.3% 7.3% 4.3% 2.8% 2.6% 1.8% 0.8% 0.3%
x264 [info]: ref B L1: 91.4% 8.6%
x264 [info]: SSIM Mean Y:0.9838887 (17.929db)
x264 [info]: PSNR Mean Y:46.675 U:50.637 V:49.851 Avg:47.417 Global:46.856 kb/s:4109.85
x264 [total]: encoded 179395 frames, 4.05 fps, 4109.85 kb/s

Скриншоты

Скачать

Скачать торрент!

Как скачивать? · Что такое торрент? · Рейтинг и ограничения

Сайт не распространяет и не хранит электронные версии произведений, а лишь предоставляет доступ к создаваемому пользователями каталогу ссылок на торрент-файлы, которые содержат только списки хеш-сумм

[Профиль] [ЛС]
Показать сообщения:    
Ответить на тему

Текущее время: Сегодня 19:58

Часовой пояс: GMT + 4



Вы не можете начинать темы
Вы не можете отвечать на сообщения
Вы не можете редактировать свои сообщения
Вы не можете удалять свои сообщения
Вы не можете голосовать в опросах
Вы не можете прикреплять файлы к сообщениям
Вы не можете скачивать файлы