Польская Сибириада / Syberiada Polska (Януш Заорский / Janusz Zaorski) [2013 г., Польша, драма, мелодрама, военный, история, TVRip] VO (GalVid)

Ответить на тему
 
Автор Сообщение

user ®

Стаж: 7 лет 7 месяцев

Сообщений: 20008

Пост Пост: #1 от 27-Июл-2013 17:15

[Цитировать]

Польская Сибириада / Syberiada Polska
Страна: Польша
Жанр: драма, мелодрама, военный, история
Год выпуска: 2013
Продолжительность: 02:06:35
Перевод: Одноголосый закадровый (GalVid)
Субтитры: нет
Оригинальная аудиодорожка: нет
Режиссер: Януш Заорский / Janusz Zaorski
В ролях: Адам Воронович , Соня Бохосевич, Андрий Журба, Павел Круч, Игорь Гнездилов, Наталья Рыбицка, Ян Пешек, Агнешка Вендлоха, Лера Гуляева, Дмитро Сова, Марчин Валевски, Уршула Грабовска, Александр Крижановский, Жанна Герасимова, Ярослав Груда, Лех Дыблик
Описание: Зимой 1940 года войска НКВД депортируют семью Яна Долины вместе с другими польскими жителями деревни из Подолья в Восточную Сибирь, в таёжный трудовой лагерь. На их судьбы зрители смотрят глазами юного Сташека Долины, которого эти события заставляют рано повзрослеть и принимать решения, ставкой которых будет жизнь его близких.
По мотивам повести Збигнева Домино "Польская Сибириада"
Доп. информация:
Перевод субтитров: MPil
Озвучивал: [url=http://***/forum/tracker.php?rid=12824094]GalVid[/url]
IMDb 5,3/10 (26 votes)
Кинопоиск
Релиз:
Сэмпл

Качество видео: TVRip
Формат: AVI
Видео: 640x352 (1.82:1), 25 fps, XviD build 50 ~1404 kbps avg, 0.25 bit/pixel
Аудио: 48 kHz, AC3 Dolby Digital, 2/0 (L,R) ch, ~192 kbps

MediaInfo

Общее
Полное имя : D:\Torrent-D\Syberiada.Polska.(TVRip).GalVid.avi
Формат : AVI
Формат/Информация : Audio Video Interleave
Размер файла : 1,42 Гбайт
Продолжительность : 2 ч. 6 м.
Общий поток : 1607 Кбит/сек
Название фильма : Syberiada.Polska.(TVRip).GalVid
Режиссёр : Release by GalVid
Программа кодирования : VirtualDubMod 1.5.10.3 (build 2550/release)
Видео
Идентификатор : 0
Формат : MPEG-4 Visual
Профиль формата : Advanced Simple@L5
Параметр BVOP формата : 2
Параметр QPel формата : Нет
Параметр GMC формата : Без точки перехода
Параметр матрицы формата : Default (H.263)
Идентификатор кодека : XVID
Идентификатор кодека/Подсказка : XviD
Продолжительность : 2 ч. 6 м.
Битрейт : 1405 Кбит/сек
Ширина : 640 пикс.
Высота : 352 пикс.
Соотношение сторон : 16:9
Частота кадров : 25,000 кадр/сек
Цветовое пространство : YUV
Подвыборка цветности : 4:2:0
Битовая глубина : 8 бит
Тип развёртки : Прогрессивная
Метод сжатия : С потерями
Бит/(Пиксели*Кадры) : 0.249
Размер потока : 1,24 Гбайт (87%)
Библиотека кодирования : XviD 1.2.1 (UTC 2008-12-04)
Аудио
Идентификатор : 1
Формат : AC-3
Формат/Информация : Audio Coding 3
Расширение режима : CM (complete main)
Идентификатор кодека : 2000
Продолжительность : 2 ч. 6 м.
Вид битрейта : Постоянный
Битрейт : 192 Кбит/сек
Канал(ы) : 2 канала(ов)
Расположение каналов : Front: L R
Частота : 48,0 КГц
Битовая глубина : 16 бит
Метод сжатия : С потерями
Размер потока : 174 Мбайт (12%)
Выравнивание : Разделение по промежуткам
Продолжительность промежутка : 40 мс. (1,00 видеокадр)
Время предзагрузки промежутка : 500 ms

Скриншот с названием фильма

Скриншоты

Скачать

Скачать торрент!

Как скачивать? · Что такое торрент? · Рейтинг и ограничения

Сайт не распространяет и не хранит электронные версии произведений, а лишь предоставляет доступ к создаваемому пользователями каталогу ссылок на торрент-файлы, которые содержат только списки хеш-сумм

[Профиль] [ЛС]
Показать сообщения:    
Ответить на тему

Текущее время: Сегодня 05:55

Часовой пояс: GMT + 4



Вы не можете начинать темы
Вы не можете отвечать на сообщения
Вы не можете редактировать свои сообщения
Вы не можете удалять свои сообщения
Вы не можете голосовать в опросах
Вы не можете прикреплять файлы к сообщениям
Вы не можете скачивать файлы