Улики / Evidence (Олатунде Осунсанми / Olatunde Osunsanmi) [2013, США, ужасы, триллер, WEB-DL 1080p] Dub (Line) + VO (lord666) + Original Eng + Sub Eng

Ответить на тему
 
Автор Сообщение

user ®

Стаж: 7 лет 7 месяцев

Сообщений: 20008

Пост Пост: #1 от 27-Июл-2013 01:30

[Цитировать]

Улики / Evidence «Собери ужас по фрагментам» Год выпуска: 2013
Страна: США
Жанр: ужасы, триллер
Продолжительность: 01:33:57
Перевод 1: Профессиональный (дублированный) Line
Перевод 2: Одноголосый закадровый Ненормативная лексика
Оригинальная аудиодорожка: Английская
Субтитры: Английские (SDH)
Студия: Bold Films, FilmEngine, Marc Platt Productions
Режиссёр: Олатунде Осунсанми / Olatunde Osunsanmi
В ролях: Стивен Мойер, Рада Митчелл, Торри ДеВито, Нолан Фанк, Дейл Дикки, Гарри Дж. Ленникс, Кэйтлин Стэйси, Амл Амин, Светлана Меткина, Джон Хеймс Ньютон и др.
Описание: В автобусе, направлявшемся в Лас-Вегас, совершено жестокое убийство. На месте преступления — ни одного уцелевшего. Только несколько трупов и хаотичный набор мобильных телефонов, карманных видеокамер и других устройств, оставшихся от потерпевших. Детектив, которому поручено расследование, с помощью сохранившихся записей пытается восстановить цепь загадочных событий, приведших к трагедии.
Качество: WEB-DL 1080p (Evidence 2013 1080p WEB-DL DD5 1 H 264-HKD)
Контейнер: MKV
Видео кодек: MPEG-4 AVC Video
Аудио кодек: Dolby Digital Audio
Видео: MPEG-4 AVC Video / 4762 kbps / 1916x796p / 23,976 fps / 2.40:1 / 0.130 bit/pix / High@L4.0
Аудио 1: Русский / Dolby Digital Audio / 2.0 / 48 kHz / 192 kbps / 16-bit / Dub Line
Аудио 2: Русский / Dolby Digital Audio / 2.0 / 48 kHz / 192 kbps / 16-bit / VO lord666
Аудио 3: English / Dolby Digital Audio / 5.1 / 48 kHz / 384 kbps / 16-bit / Оригинал
Навигация по главам: да

Скриншот с названием фильма

MediaInfo

C:\Улики (Evidence) 2013, США, ужасы, триллер, WEB-DL 1080p GORESEWAGE.mkv
General
Unique ID : 192732088730685274386498155319230994480 (0x90FED99FB318BA33A04AB0EDA6C41830)
Complete name : C:\Улики (Evidence) 2013, США, ужасы, триллер, WEB-DL 1080p GORESEWAGE.mkv
Format : Matroska
Format version : Version 4 / Version 2
File size : 3.70 GiB
Duration : 1h 33mn
Overall bit rate : 5 642 Kbps
Movie name : GORESEWAGE
Encoded date : UTC 2013-07-26 14:29:05
Writing application : mkvmerge v6.1.0 ('Old Devil') built on Mar 31 2013 15:21:18
Writing library : libebml v1.3.0 + libmatroska v1.4.0
Video #1
ID : 1
Format : AVC
Format/Info : Advanced Video Codec
Format profile : High@L4.0
Format settings, CABAC : Yes
Format settings, ReFrames : 5 frames
Codec ID : V_MPEG4/ISO/AVC
Duration : 1h 33mn
Bit rate : 4 762 Kbps
Width : 1 916 pixels
Height : 796 pixels
Display aspect ratio : 2.40:1
Frame rate mode : Constant
Frame rate : 23.976 fps
Color space : YUV
Chroma subsampling : 4:2:0
Bit depth : 8 bits
Scan type : Progressive
Bits/(Pixel*Frame) : 0.130
Stream size : 3.12 GiB (84%)
Title : GORESEWAGE
Language : English
Default : Yes
Forced : No
Color primaries : BT.709
Transfer characteristics : BT.709
Matrix coefficients : BT.709
Audio #2
ID : 2
Format : AC-3
Format/Info : Audio Coding 3
Mode extension : CM (complete main)
Format settings, Endianness : Big
Codec ID : A_AC3
Duration : 1h 33mn
Bit rate mode : Constant
Bit rate : 192 Kbps
Channel(s) : 2 channels
Channel positions : Front: L R
Sampling rate : 48.0 KHz
Bit depth : 16 bits
Compression mode : Lossy
Stream size : 129 MiB (3%)
Title : Профессиональный (дублированный) Line
Language : Russian
Default : Yes
Forced : No
Audio #3
ID : 3
Format : AC-3
Format/Info : Audio Coding 3
Mode extension : CM (complete main)
Format settings, Endianness : Big
Codec ID : A_AC3
Duration : 1h 33mn
Bit rate mode : Constant
Bit rate : 192 Kbps
Channel(s) : 2 channels
Channel positions : Front: L R
Sampling rate : 48.0 KHz
Bit depth : 16 bits
Compression mode : Lossy
Stream size : 129 MiB (3%)
Title : Одноголосый закадровый lord666
Language : Russian
Default : No
Forced : No
Audio #4
ID : 4
Format : AC-3
Format/Info : Audio Coding 3
Mode extension : CM (complete main)
Format settings, Endianness : Big
Codec ID : A_AC3
Duration : 1h 33mn
Bit rate mode : Constant
Bit rate : 384 Kbps
Channel(s) : 6 channels
Channel positions : Front: L C R, Side: L R, LFE
Sampling rate : 48.0 KHz
Bit depth : 16 bits
Compression mode : Lossy
Stream size : 258 MiB (7%)
Title : Оригинал
Language : English
Default : No
Forced : No
Text #5
ID : 5
Format : UTF-8
Codec ID : S_TEXT/UTF8
Codec ID/Info : UTF-8 Plain Text
Title : Full
Language : English
Default : No
Forced : No
Menu
00:00:00.000 : en:Evidence
00:07:52.000 : en:This Could Be It
00:14:25.000 : en:Viva Las Vegas
00:23:23.000 : en:Help
00:31:06.000 : en:First Vicitim
00:40:31.000 : en:Night Vision
00:47:59.000 : en:I Know Why
00:54:39.000 : en:A Motive
01:01:29.000 : en:Fuel House
01:07:56.000 : en:Just A Game
01:19:26.000 : en:Masterpiece
01:28:40.000 : en:End Credits

Полноразмерный постер

Скачать

Скачать торрент!

Как скачивать? · Что такое торрент? · Рейтинг и ограничения

Сайт не распространяет и не хранит электронные версии произведений, а лишь предоставляет доступ к создаваемому пользователями каталогу ссылок на торрент-файлы, которые содержат только списки хеш-сумм

[Профиль] [ЛС]
Показать сообщения:    
Ответить на тему

Текущее время: Сегодня 07:48

Часовой пояс: GMT + 4



Вы не можете начинать темы
Вы не можете отвечать на сообщения
Вы не можете редактировать свои сообщения
Вы не можете удалять свои сообщения
Вы не можете голосовать в опросах
Вы не можете прикреплять файлы к сообщениям
Вы не можете скачивать файлы