У Бога свои планы (Дмитрий Тюрин) [2012, мелодрама, DVDRip]

Ответить на тему
 
Автор Сообщение

user ®

Стаж: 7 лет 7 месяцев

Сообщений: 20008

Пост Пост: #1 от 27-Июл-2013 01:30

[Цитировать]

У Бога свои планы
Жанр: мелодрама
Год выпуска: 2012
Продолжительность: 01:31:07
Режиссёр: Дмитрий Тюрин
В ролях: Елена Захарова, Дмитрий Орлов, Алёна Хмельницкая, Дмитрий Астрахан, Алёна Яковлева, Евгения Дмитриева, Анна Банщикова, Ульяна Урванцева, Екатерина Сёмина, Илария Гребенникова, Маргарита Другаль, Арсений Мурзин, Елизавета Зарубина, Александр Бирюков, Светлана Авилова, Илья Семёнов, Кристина Кучеренко, Мириам Комиссарова, Вероника Вернадская, Максим Юдин, Леонид Кутсар, Анна Литкенс, Елена Кочеткова, Анна Шляхова, Роман Калькаев, Наталья Чернявская, Константин Корольков, Лилия Разакова, Виктория Борисова, Максим Куранов, Марианна Вольская, Павел Жарков, Валентина Ляпина, Нодари Джанелидзе, Мария Смольникова, Нина Антюхова, Игорь Скурихин, Олег Курлов, Сергей Неудачин, Николай Молочков, Андрей Казаков, Александр Слонимский
Описание: Настя Светлова, 35-летняя суррогатная мать со стажем, рожает в пятый раз. Роды идут очень тяжело, ребенок оказался крупным, пришлось делать кесарево сечение, в результате Настя потеряла возможность иметь детей. И случилось это как раз в тот самый момент, когда она наконец-то решила родить шестого ребенка, сына - для себя...
Доп. информация:
Сценарий: Алла Сницар
Редактор: Светлана Фричинская
Художник: Екатерина Ястремская
Оператор: Марк Зисельсон
Композитор: Максим Кошеваров, Настя Васильева ("Ты меня - я тебя")
Вокал: кабаре-бэнд "Серебряная свадьба"
Награды: гран-при в категории "ТВ-шок" на XXI Открытым фестивале кино
стран СНГ, Латвии, Литвы и Эстонии "Киношок" (Анапа, 2012)
Ограничения на просмотр: зрителям, достигшим 16 лет

О звуке

В исходном DVD две аудиодорожки - стерео и DD5.1; 6-канальная дорожка - "дутая". Все диалоги полностью присутствуют не только в центральном, но и во всех остальных каналах. Канал LFE выглядит вот так: http://screenshotcomparison.com/comparison/33898/ - сопоставление фронтальных и тыловых каналов
Поэтому в данном рипе использована стерео-дорожка.
Качество видео: DVDRip
Формат видео: AVI
Видео: 704x400 (1.76:1), 25 fps, XviD build 73, 2110 kbps avg, 0.30 bit/pixel
Аудио: 48 kHz, AC3 Dolby Digital, 2/0 (L,R) ch, 192 kbps

MediaInfo

Полное имя : U Boga svoi plany.avi
Формат : AVI
Формат/Информация : Audio Video Interleave
Размер файла : 1,47 Гбайт
Продолжительность : 1 ч. 31 м.
Общий поток : 2312 Кбит/сек
Программа кодирования : VirtualDubMod 1.5.10.3 (build 2550/release)
Библиотека кодирования : VirtualDubMod build 2550/release
Видео
Идентификатор : 0
Формат : MPEG-4 Visual
Профиль формата : Advanced Simple@L5
Параметр BVOP формата : 1
Параметр QPel формата : Нет
Параметр GMC формата : Без точки перехода
Параметр матрицы формата : Выборочная
Идентификатор кодека : DX50
Идентификатор кодека/Подсказка : DivX 5
Продолжительность : 1 ч. 31 м.
Битрейт : 2110 Кбит/сек
Ширина : 704 пикселя
Высота : 400 пикселей
Соотношение сторон : 16:9
Частота кадров : 25,000 кадров/сек
Цветовое пространство : YUV
Субдискретизация насыщенности : 4:2:0
Битовая глубина : 8 бит
Тип развёртки : Прогрессивная
Метод сжатия : С потерями
Бит/(Пиксели*Кадры) : 0.300
Размер потока : 1,34 Гбайт (91%)
Библиотека кодирования : XviD 73
Аудио
Идентификатор : 1
Формат : AC-3
Формат/Информация : Audio Coding 3
Расширение режима : CM (complete main)
Параметр Endianness формата : Big
Идентификатор кодека : 2000
Продолжительность : 1 ч. 31 м.
Вид битрейта : Постоянный
Битрейт : 192 Кбит/сек
Каналы : 2 канала
Расположение каналов : Front: L R
Частота : 48,0 КГц
Битовая глубина : 16 бит
Метод сжатия : С потерями
Размер потока : 125 Мбайт (8%)
Выравнивание : Разделение по промежуткам
Продолжительность промежутка : 40 мс. (1,00 видеокадр)
Время предзагрузки промежутка : 500 мс.

Скриншоты c названием фильма и годом выпуска

Скриншоты

Скачать

Скачать торрент!

Как скачивать? · Что такое торрент? · Рейтинг и ограничения

Сайт не распространяет и не хранит электронные версии произведений, а лишь предоставляет доступ к создаваемому пользователями каталогу ссылок на торрент-файлы, которые содержат только списки хеш-сумм

[Профиль] [ЛС]
Показать сообщения:    
Ответить на тему

Текущее время: Сегодня 22:34

Часовой пояс: GMT + 4



Вы не можете начинать темы
Вы не можете отвечать на сообщения
Вы не можете редактировать свои сообщения
Вы не можете удалять свои сообщения
Вы не можете голосовать в опросах
Вы не можете прикреплять файлы к сообщениям
Вы не можете скачивать файлы