Оставайся голодным / Stay Hungry / Mister Universum (Боб Рэфелсон / Bob Rafelson) [1976, США, драма, комедия, HDTV 1080i] DVO (НТВ+) + MVO (Питер ТВ5) + Sub Eng + Original Eng

Ответить на тему
 
Автор Сообщение

user ®

Стаж: 7 лет 7 месяцев

Сообщений: 20008

Пост Пост: #1 от 26-Июл-2013 19:10

[Цитировать]

Оставайся Голодным / Stay Hungry / Mister Universum
Страна: США
Студия: Outov Productions
Жанр: драма, комедия
Год выпуска: 1976
Продолжительность: 01:38:01
Перевод 1: Профессиональный (двухголосый закадровый) НТВ+
Перевод 2: Профессиональный (многоголосый закадровый) Питер ТВ5
Cубтитры: английские
Оригинальная аудиодорожка: английский
Режиссер: Боб Рэфелсон / Bob Rafelson
В ролях: Джефф Бриджес, Сэлли Филд, Арнольд Шварценеггер, Р.Г. Армстронг, Роберт Инглунд, Хелена Каллианиотес, Роджер Э. Мосли, Вудроу Парфри, Скэтмэн Крозерс, Кэтлин Миллер
Описание: Крупный синдикат хочет прибрать к рукам целый район. Уже скуплены все здания, за исключением маленького гимнастического зала «Олимпик», где местный чемпион по бодибилдингу Джо Санто, готовится к предстоящему соревнованию. В ряды тренирующихся спортсменов внедряется спецагент.

Доп. информация:
За многоголоску и оригинальную дорогу спасибо Александр59
Тип релиза: HDTV 1080i
Контейнер: MKV
Видео: AVC 1920x1080 (16:9) 25.0fps Bit rate 6561Kbps
Аудио 1: AC3 48.0KHz 2ch 192 Kbps rus
Аудио 2: AC3 48.0KHz 2ch 192 Kbps rus
Аудио 3: AC3 48.0KHz 2ch 192 Kbps eng

Сравнение с DVD


MediaInfo

General
Complete name : E:\torrent\Ostavaisya golodnym_HDTV 1080i.mkv
Format : Matroska
File size : 4.99 GiB
Duration : 1h 38mn
Overall bit rate : 7 281 Kbps
Encoded date : UTC 2013-07-26 06:32:46
Writing application : mkvmerge v5.7.0 ('The Whirlwind') built on Jul 8 2012 20:08:51
Writing library : libebml v1.2.3 + libmatroska v1.3.0
Video
ID : 1
Format : AVC
Format/Info : Advanced Video Codec
Format profile : High@L4.0
Format settings, CABAC : Yes
Format settings, ReFrames : 3 frames
Muxing mode : Container profile=Unknown@4.0
Codec ID : V_MPEG4/ISO/AVC
Duration : 1h 38mn
Bit rate : 6 561 Kbps
Width : 1 920 pixels
Height : 1 080 pixels
Display aspect ratio : 16:9
Frame rate : 50.000 fps
Original frame rate : 25.000 fps
Standard : Component
Color space : YUV
Chroma subsampling : 4:2:0
Bit depth : 8 bits
Scan type : Interlaced
Scan order : Top Field First
Bits/(Pixel*Frame) : 0.063
Stream size : 4.49 GiB (90%)
Title : Stay Hungry_HDTV 1080i
Color primaries : BT.709-5, BT.1361, IEC 61966-2-4, SMPTE RP177
Transfer characteristics : BT.709-5, BT.1361
Matrix coefficients : BT.709-5, BT.1361, IEC 61966-2-4 709, SMPTE RP177
Audio #1
ID : 2
Format : AC-3
Format/Info : Audio Coding 3
Mode extension : CM (complete main)
Codec ID : A_AC3
Duration : 1h 38mn
Bit rate mode : Constant
Bit rate : 192 Kbps
Channel(s) : 2 channels
Channel positions : Front: L R
Sampling rate : 48.0 KHz
Bit depth : 16 bits
Stream size : 135 MiB (3%)
Title : Stay Hungry_AC3_DVO_rus
Language : Russian
Audio #2
ID : 3
Format : AC-3
Format/Info : Audio Coding 3
Mode extension : CM (complete main)
Codec ID : A_AC3
Duration : 1h 38mn
Bit rate mode : Constant
Bit rate : 192 Kbps
Channel(s) : 2 channels
Channel positions : Front: L R
Sampling rate : 48.0 KHz
Bit depth : 16 bits
Stream size : 135 MiB (3%)
Title : Stay Hungry_AC3_MVO_rus
Language : Russian
Audio #3
ID : 4
Format : AC-3
Format/Info : Audio Coding 3
Mode extension : CM (complete main)
Codec ID : A_AC3
Duration : 1h 38mn
Bit rate mode : Constant
Bit rate : 192 Kbps
Channel(s) : 2 channels
Channel positions : Front: L R
Sampling rate : 48.0 KHz
Bit depth : 16 bits
Stream size : 135 MiB (3%)
Title : Stay Hungry_AC3_original_eng
Text
ID : 5
Format : UTF-8
Codec ID : S_TEXT/UTF8
Codec ID/Info : UTF-8 Plain Text
Title : Stay Hungry_sub_eng

Скриншот с названием фильма

Скриншоты

Скачать

Скачать торрент!

Как скачивать? · Что такое торрент? · Рейтинг и ограничения

Сайт не распространяет и не хранит электронные версии произведений, а лишь предоставляет доступ к создаваемому пользователями каталогу ссылок на торрент-файлы, которые содержат только списки хеш-сумм

[Профиль] [ЛС]
Показать сообщения:    
Ответить на тему

Текущее время: Сегодня 10:09

Часовой пояс: GMT + 4



Вы не можете начинать темы
Вы не можете отвечать на сообщения
Вы не можете редактировать свои сообщения
Вы не можете удалять свои сообщения
Вы не можете голосовать в опросах
Вы не можете прикреплять файлы к сообщениям
Вы не можете скачивать файлы