Смертный приговор / The Death Sentence: Mrityu Dand (Пракаш Джха / Prakash Jha) [1997, Индия, Драма, DVDRip] DVO

Ответить на тему
 
Автор Сообщение

user ®

Стаж: 12 лет

Сообщений: 15124

Пост Пост: #1 от 26-Июл-2013 12:50

[Цитировать]

Смертный приговор / The Death Sentence: Mrityu Dand
-Страна: Индия
Жанр: Драма
Год выпуска: 1997
Продолжительность: 02:41:21-Перевод: Профессиональный (двухголосый, закадровый)
Cубтитры: Нет-Режиссер: Пракаш Джха / Prakash Jha-В ролях: Мадхури Дикшит, Аюб Кхан, Ом Пури, Шабана Азми, Шилпа Широдкар, Мохан Джоши, Хариш Патель, Бридж Гопал-Описание: Тяжело складывается жизнь деревенской красавицы Кетаки в доме мужа Винджая. Он связывается с нечистоплотным строительным дельцом Тирпатом Сингхом. Кетаки заставляет мужа порвать с ним. Но новые беды приходят к ним в дом. Тирпат Сингх организовывает убийство Винджая и, оклеветав невестку Кетаки, вынуждает Совет деревенских старейшин вынести ей смертный приговор. Сможет ли Кетаки, оставшаяся без мужской поддержки, защитить себя и свою невестку от распоясавшихся преступников?..-- | Кинопоиск--Качество видео: DVDRip
Исходник: DVD9 R1
Формат видео: AVI-Видео: XVID, 640x336, 23.976 fps, 1155 Kbps
Аудио: MP3 44.1 Hz, 2.0 stereo, 128 Kbps--Cинхронизация аудио, риппер: soso4eg
Спасибо за исходные мат-лы reza74 (оригинальное видео)
и umaet2982@dslykrtelnet (оцифровка аудио с VHS)
- -
-

Скриншоты


-

MI

Общее
Полное имя : D:\[Релизы]\[DVDRip]\SMERTNIY.PRIGOVOR.1997.DVDRip.XviD.soso4eg.avi
Формат : AVI
Формат/Информация : Audio Video Interleave
Размер файла : 1,46 Гбайт
Продолжительность : 2 ч. 41 м.
Общий поток : 1293 Кбит/сек
Название фильма : SMERTNIY.PRIGOVOR.1997.DVDRip.XviD.BwTorrents
Программа кодирования : VirtualDubMod 1.5.10.3 | www.virtualdub-fr.org || (build 2550/release)
Видео
Идентификатор : 0
Формат : MPEG-4 Visual
Профиль формата : Advanced Simple@L5
Параметр BVOP формата : 1
Параметр QPel формата : Нет
Параметр GMC формата : Без точки перехода
Параметр матрицы формата : Default (H.263)
Идентификатор кодека : XVID
Идентификатор кодека/Подсказка : XviD
Продолжительность : 2 ч. 41 м.
Битрейт : 1156 Кбит/сек
Ширина : 640 пикселей
Высота : 336 пикселей
Соотношение сторон : 1,905
Частота кадров : 23,976 кадра/сек
Цветовое пространство : YUV
Субдискретизация насыщенности : 4:2:0
Битовая глубина : 8 бит
Тип развёртки : Прогрессивная
Метод сжатия : С потерями
Бит/(Пиксели*Кадры) : 0.224
Размер потока : 1,30 Гбайт (89%)
Библиотека кодирования : XviD 1.2.1 (UTC 2008-12-04)
Аудио
Идентификатор : 1
Формат : MPEG Audio
Версия формата : Version 1
Профиль формата : Layer 3
Идентификатор кодека : 55
Идентификатор кодека/Подсказка : MP3
Продолжительность : 2 ч. 41 м.
Вид битрейта : Постоянный
Битрейт : 128 Кбит/сек
Каналы : 2 канала
Частота : 44,1 КГц
Метод сжатия : С потерями
Размер потока : 148 Мбайт (10%)
Выравнивание : Разделение по промежуткам
Продолжительность промежутка : 42 мс. (1,00 видеокадр)
Время предзагрузки промежутка : 500 мс.

-
-
Скачать

Скачать торрент! Смертный приговор / The Death Sentence: Mrityu Dand (Пракаш Джха / Prakash Jha) [1997, Индия, Драма, DVDRip] DVO

Как скачивать? · Что такое торрент? · Рейтинг и ограничения

Сайт не распространяет и не хранит электронные версии произведений, а лишь предоставляет доступ к создаваемому пользователями каталогу ссылок на торрент-файлы, которые содержат только списки хеш-сумм

[Профиль] [ЛС]
Показать сообщения:    
Ответить на тему

Текущее время: Сегодня 20:55

Часовой пояс: GMT + 4



Вы не можете начинать темы
Вы не можете отвечать на сообщения
Вы не можете редактировать свои сообщения
Вы не можете удалять свои сообщения
Вы не можете голосовать в опросах
Вы не можете прикреплять файлы к сообщениям
Вы не можете скачивать файлы