Тайком от всех / Chori Chori (Ананд Такур / Anant Thakur) [1956, Индия, Мелодрама, DVDRip] [Цветная версия] MVO (Формат AB)

Ответить на тему
 
Автор Сообщение

user ®

Стаж: 12 лет

Сообщений: 15124

Пост Пост: #1 от 26-Июл-2013 12:50

[Цитировать]

Тайком от всех / Chori Chori / Цветная версия
Страна: Индия
Жанр: Мелодрама
Год выпуска: 1956
Продолжительность: 02:20:56
Перевод: Профессиональный (многоголосый закадровый) Формат AB
Cубтитры: нет
Режиссер: Ананд Такур / Anant Thakur
В ролях: Радж Капур, Наргис, Бхагван, Пран, Дэвид Абрахам, Мукри, Радж Мехра, Индира Бансал, Амир Бану
Описание: Молоденькая девушка - единственная наследница миллионера, попадает под влияние чар известного проходимца и сердцееда. Отец восстаёт против такого союза и запирает дочь на замок. Однако юной упрямице удаётся бежать. Имея на руках совсем немного денег, девушка вынуждена путешествовать на автобусе, чтобы добраться до любимого. По пути судьба сталкивает её с Сагаром - бедным писателем, неудачливым репортёром, заядлым циником и ворчуном. Что-то вспыхивает между ними: вражда, неприязнь? И всё же Сагар - единственная защита девушки от преследователей, путившихся по её следу за награду, обещанную её отцом. Плечо, на которое она вынуждены была опереться, стало вдруг самым дорогим ей в мире плечом...
Доп. информация: Сведение звука : Василисса (СПАСИБО!)
Сэмпл: http://multi-up.com/887807
Качество видео: DVDRip
Формат видео: AVI
Видео: XviD build 50, 688x368 (1.87:1), 23.976 fps, 804 kbps avg
Аудио: MPEG Layer 3, 48 kHz, 2/0 (L,R) ch, 128.00 kbps avg

MediaInfo

General
Complete name : D:\Taikom.ot.vseh.1956.DVDRip.avi
Format : AVI
Format/Info : Audio Video Interleave
File size : 950 MiB
Duration : 2h 20mn
Overall bit rate : 942 Kbps
Writing application : VirtualDubMod 1.5.10.2 (build 2540/release)
Writing library : VirtualDubMod build 2540/release
Video
ID : 0
Format : MPEG-4 Visual
Format profile : AdvancedSimple@L5
Format settings, BVOP : Yes
Format settings, QPel : No
Format settings, GMC : No warppoints
Format settings, Matrix : Default (MPEG)
Codec ID : XVID
Codec ID/Hint : XviD
Duration : 2h 20mn
Bit rate : 805 Kbps
Width : 688 pixels
Height : 368 pixels
Display aspect ratio : 1.870
Frame rate : 23.976 fps
Resolution : 24 bits
Colorimetry : 4:2:0
Scan type : Progressive
Bits/(Pixel*Frame) : 0.133
Stream size : 811 MiB (85%)
Writing library : XviD 1.2.1 (UTC 2008-12-04)
Audio
ID : 1
Format : MPEG Audio
Format version : Version 1
Format profile : Layer 3
Codec ID : 55
Codec ID/Hint : MP3
Duration : 2h 20mn
Bit rate mode : Constant
Bit rate : 128 Kbps
Channel(s) : 2 channels
Sampling rate : 44.1 KHz
Resolution : 16 bits
Stream size : 129 MiB (14%)
Alignment : Split accross interleaves
Interleave, duration : 42 ms (1.00 video frame)
Interleave, preload duration : 500 ms
Writing library : LAME3.98r
Encoding settings : -m s -V 4 -q 2 -lowpass 17 -b 128

Скриншоты

Скачать

Скачать торрент! Тайком от всех / Chori Chori (Ананд Такур / Anant Thakur) [1956, Индия, Мелодрама, DVDRip] [Цветная версия] MVO (Формат AB)

Как скачивать? · Что такое торрент? · Рейтинг и ограничения

Сайт не распространяет и не хранит электронные версии произведений, а лишь предоставляет доступ к создаваемому пользователями каталогу ссылок на торрент-файлы, которые содержат только списки хеш-сумм

[Профиль] [ЛС]
Показать сообщения:    
Ответить на тему

Текущее время: Сегодня 21:29

Часовой пояс: GMT + 4



Вы не можете начинать темы
Вы не можете отвечать на сообщения
Вы не можете редактировать свои сообщения
Вы не можете удалять свои сообщения
Вы не можете голосовать в опросах
Вы не можете прикреплять файлы к сообщениям
Вы не можете скачивать файлы