Ван И и Чжун А / Wanee and Junah / Wanee wa Junah (Ким Ён Гён / Kim Yong Kyoon) [2001, Южная Корея, драма, мелодрама, DVDRip] + Sub Rus

Ответить на тему
 
Автор Сообщение

user ®

Стаж: 11 лет

Сообщений: 15151

Пост Пост: #1 от 26-Июл-2013 03:20

[Цитировать]

Ван И и Чжун А / Wanee and Junah / Wanee wa Junah
Страна: Южная Корея
Жанр: драма, мелодрама
Год выпуска: 2001
Продолжительность: 01:53:00
Перевод: Субтитры (Templeton)
Cубтитры: русские
Оригинальная аудиодорожка: корейский
Режиссер: Ким Ён Гён / Kim Yong Kyoon
В ролях: Ким Хи Сон, Чу Чжин Мо, Чхве Кан Хи, Чо Сын У, Ли Хе Сок, Мин Юн Чжэ.
Описание: Ван И, молодой аниматор, и Чжун А, сценарист, любовники, ведущие мирную жизнь вместе.
Однажды Ван И навещает ее школьная подруга, которая была и до сих пор безумно влюблена в ее сводного брата еще со школы.
Качество видео: DVDRip
Формат видео: AVI
Видео: MS MPEG-4 Video v3 (DIV3), 576х320, 23.976000
Аудио: MPEG-4 Audio layer 1/2/3 (mgpa), 48000 Гц, 104 кб/сек
Формат субтитров: softsub (SRT)

MediaInfo

Общее
Полное имя : Wanee And Junah 2001 Dvd-Rip.avi
Формат : AVI
Формат/Информация : Audio Video Interleave
Размер файла : 699 Мбайт
Продолжительность : 1 ч. 53 м.
Режим общего битрейта : Переменный
Общий поток : 860 Кбит/сек
Программа кодирования : Nandub v1.0rc2
Библиотека кодирования : Nandub build 1853/release
Видео
Идентификатор : 0
Формат : MPEG-4 Visual
Идентификатор кодека : DIV3
Идентификатор кодека/Подсказка : DivX 3 Low
Продолжительность : 1 ч. 53 м.
Битрейт : 743 Кбит/сек
Ширина : 576 пикселей
Высота : 320 пикселей
Соотношение сторон : 16:9
Частота кадров : 23,976 кадра/сек
Цветовое пространство : YUV
Субдискретизация насыщенности : 4:2:0
Битовая глубина : 8 бит
Метод сжатия : С потерями
Бит/(Пиксели*Кадры) : 0.168
Размер потока : 604 Мбайт (86%)
Аудио
Идентификатор : 1
Формат : MPEG Audio
Версия формата : Version 1
Профиль формата : Layer 3
Режим : Joint stereo
Идентификатор кодека : 55
Идентификатор кодека/Подсказка : MP3
Продолжительность : 1 ч. 53 м.
Продолжительность оригинала : 1 ч. 53 м.
Вид битрейта : Переменный
Битрейт : 104 Кбит/сек
Минимальный битрейт : 96,0 Кбит/сек
Каналы : 2 канала
Частота : 48,0 КГц
Метод сжатия : С потерями
Задержка видео : 1 с. 8 мс.
Размер потока : 84,6 Мбайт (12%)
Выравнивание : Разделение по промежуткам
Продолжительность промежутка : 24 мс. (0,58 видеокадр)
Время предзагрузки промежутка : 1771 мс.
Библиотека кодирования : LAME3.92
Настройки программы : -m j -V 6 -q 2 -lowpass 16.5 --vbr-new -b 96

Пример субтитров

26
00:05:30,697 --> 00:05:36,669
Извините, давайте на 3 000.
27
00:05:36,669 --> 00:05:38,534
Что?
28
00:06:06,599 --> 00:06:07,657
Мы знакомы?
29
00:06:08,034 --> 00:06:11,003
- Вы Ли Ван И?
- А что?
30
00:06:11,437 --> 00:06:12,927
Почему так рано?
31
00:06:13,840 --> 00:06:16,570
- Уволили?
- Да, ну и что?
32
00:06:17,477 --> 00:06:20,878
- Так это ваша последняя трапеза?
- Возьми уже сумки.
33
00:06:21,814 --> 00:06:25,443
Со мной тебе голодать не придется,
не переживай.
34
00:06:25,752 --> 00:06:28,619
- Но зачем столько?
- В кармане завелись деньги.
35
00:06:29,188 --> 00:06:31,816
Я купила только салфетки,
кофе, рыбу...
36
00:06:32,358 --> 00:06:36,852
- А что у нас на ужин?
- Для ужина я купила рыбу.
37
00:06:42,869 --> 00:06:44,336
Здорово, я проголодался.
38
00:06:49,041 --> 00:06:53,137
- Ты сегодня много сэкономила.
- Да, была занята.
39
00:06:58,184 --> 00:06:59,481
С тобой бывало такое?
40
00:07:00,052 --> 00:07:04,682
Будто ты уже переживал что-то подобное.
41
00:07:05,258 --> 00:07:06,919
А, дежа вю?
42
00:07:07,493 --> 00:07:09,984
Такое часто случается, когда устаешь.
43
00:07:10,630 --> 00:07:13,224
- Закончил писать?
- Да, почти.
44
00:07:15,902 --> 00:07:18,166
- Хочешь увидеть?
- Ага.
45
00:07:19,238 --> 00:07:21,331
Почему раньше не попросила?
46
00:07:22,141 --> 00:07:25,975
Я просто ждала. Можно посмотреть?
47
00:07:27,246 --> 00:07:28,474
Когда закончу.
48
00:07:30,016 --> 00:07:32,007
Ладно.
49
00:07:33,986 --> 00:07:35,817
Тебе все равно?
50
00:07:36,055 --> 00:07:38,922
- Это не так.
- Так и есть.
51
00:07:40,426 --> 00:07:48,162
Я безызвестен и неинтересен
даже собственной девушке.
52
00:07:49,001 --> 00:07:51,401
Ты неплохо притворяешься.
53
00:07:57,443 --> 00:08:02,608
Ты однозначно трудоголик.
54
00:08:04,851 --> 00:08:05,476
Давай...
55
00:08:06,486 --> 00:08:09,182
Дай руку. Какая холодная...
56
00:08:17,497 --> 00:08:19,624
Чем холоднее руки,
тем сильнее боль.
57
00:08:27,306 --> 00:08:28,830
Приятно.
58
00:08:38,050 --> 00:08:42,248
Время есть, действуй не спеша.
59
00:09:00,406 --> 00:09:04,076
Поторопись.
60
00:09:04,076 --> 00:09:07,170
- Что страшного в темноте?
- Ну же...
61
00:09:17,423 --> 00:09:19,721
По мне, очень мило.

Скриншоты







Скачать

Скачать торрент! Ван И и Чжун А / Wanee and Junah / Wanee wa Junah (Ким Ён Гён / Kim Yong Kyoon) [2001, Южная Корея, драма, мелодрама, DVDRip] + Sub Rus

Как скачивать? · Что такое торрент? · Рейтинг и ограничения

Сайт не распространяет и не хранит электронные версии произведений, а лишь предоставляет доступ к создаваемому пользователями каталогу ссылок на торрент-файлы, которые содержат только списки хеш-сумм

[Профиль] [ЛС]
Показать сообщения:    
Ответить на тему

Текущее время: Сегодня 23:32

Часовой пояс: GMT + 4



Вы не можете начинать темы
Вы не можете отвечать на сообщения
Вы не можете редактировать свои сообщения
Вы не можете удалять свои сообщения
Вы не можете голосовать в опросах
Вы не можете прикреплять файлы к сообщениям
Вы не можете скачивать файлы