Опасное обольщение / Oscura Seduccion / Dark Seduction (Уолтер Доэхнер / Walter Doehner) [2010, Мексика, триллер, BDRemux 1080p] [Ger Transfer] MVO (R5) + VO (Slavnus Spacedust) + Original Spa + Sub (Rus)

Ответить на тему
 
Автор Сообщение

user ®

Стаж: 7 лет 7 месяцев

Сообщений: 20008

Пост Пост: #1 от 26-Июл-2013 03:20

[Цитировать]

Опасное обольщение / Oscura Seduccion / Dark Seduction Год выпуска: 2010
Страна: Мексика
Жанр: триллер, (.)(.)
Продолжительность: 01:29:21.500
Перевод 1: Профессиональный (многоголосый закадровый) R5
Перевод 2: Одноголосый закадровый Slavnus Spacedust
Оригинальная аудиодорожка: Испанская
Субтитры: Русские (Full)
Студия: Panamax Television, Argos Television
Режиссёр: Уолтер Доэхнер / Walter Doehner
В ролях: Элисабет Сервантес, Хулио Бекор, Марко Антонио Тревиньо, Клаудия Шмидт, Росио Васкез и др.
Описание: Лора работает косметическим хирургом, а Густаво становится ее практикантом. Мужчина привлекает внимание своего босса тем, что сетует на недостаток денег для продолжения его медицинского образования. Однако, этого ему мало - герой фильма намерено обольщает одинокую женщину и уже вскоре поселяется в ее доме. Поняв, что поспешила с серьезными отношениями, Лора просит любовника съехать. Но ей еще только предстоит узнать, каков он на самом деле.
Качество: BDRemux 1080p (Oscura Seduccion 2011 1080p Blu-Ray AVC DTS-HD MA 7.1-HDChina)
Контейнер: MKV
Видео кодек: MPEG-4 AVC Video
Аудио кодек: DTS-HD Master Audio / Dolby Digital Audio
Видео: MPEG-4 AVC Video / 23446 kbps / 1920x1080p / 24 fps / 16:9 / High Profile 4.1
Аудио 1: Русский / Dolby Digital Audio / 5.1 / 48 kHz / 384 kbps / 16-bit / MVO R5
Аудио 2: Русский / Dolby Digital Audio / 2.0 / 48 kHz / 224 kbps / 16-bit / VO Slavnus Spacedust
Аудио 3: Spanish / DTS-HD Master Audio / 7.1 / 48 kHz / 2133 kbps / 16-bit (DTS Core: 5.1 / 48 kHz / 768 kbps / 16-bit) / Оригинал
Навигация по главам: да

Скриншот с названием фильма

MediaInfo

C:\***\Опасное обольщение (Oscura Seduccion) (Dark Seduction) 2010, Мексика, триллер, BDRemux 1080p GORESEWAGE.mkv
General
Unique ID : 232562755601155037000024138798050312422 (0xAEF5F51E77AF7DCCAD0AAEE0F33800E6)
Complete name : C:\***\Опасное обольщение (Oscura Seduccion) (Dark Seduction) 2010, Мексика, триллер, BDRemux 1080p GORESEWAGE.mkv
Format : Matroska
Format version : Version 4 / Version 2
File size : 16.3 GiB
Duration : 1h 29mn
Overall bit rate mode : Variable
Overall bit rate : 26.2 Mbps
Movie name : GORESEWAGE
Encoded date : UTC 2013-07-25 18:05:50
Writing application : mkvmerge v6.1.0 ('Old Devil') built on Mar 31 2013 15:21:18
Writing library : libebml v1.3.0 + libmatroska v1.4.0
Video #1
ID : 1
Format : AVC
Format/Info : Advanced Video Codec
Format profile : High@L4.1
Format settings, CABAC : Yes
Format settings, ReFrames : 2 frames
Codec ID : V_MPEG4/ISO/AVC
Duration : 1h 29mn
Bit rate mode : Variable
Bit rate : 24.2 Mbps
Maximum bit rate : 30.2 Mbps
Width : 1 920 pixels
Height : 1 080 pixels
Display aspect ratio : 16:9
Frame rate mode : Constant
Frame rate : 24.000 fps
Color space : YUV
Chroma subsampling : 4:2:0
Bit depth : 8 bits
Scan type : Progressive
Bits/(Pixel*Frame) : 0.487
Stream size : 15.1 GiB (92%)
Title : GORESEWAGE
Language : Spanish
Default : Yes
Forced : No
Audio #2
ID : 2
Format : AC-3
Format/Info : Audio Coding 3
Mode extension : CM (complete main)
Format settings, Endianness : Big
Codec ID : A_AC3
Duration : 1h 29mn
Bit rate mode : Constant
Bit rate : 384 Kbps
Channel(s) : 6 channels
Channel positions : Front: L C R, Side: L R, LFE
Sampling rate : 48.0 KHz
Bit depth : 16 bits
Compression mode : Lossy
Stream size : 245 MiB (1%)
Title : Профессиональный (многоголосый закадровый) R5
Language : Russian
Default : Yes
Forced : No
Audio #3
ID : 3
Format : AC-3
Format/Info : Audio Coding 3
Mode extension : CM (complete main)
Format settings, Endianness : Big
Codec ID : A_AC3
Duration : 1h 29mn
Bit rate mode : Constant
Bit rate : 224 Kbps
Channel(s) : 2 channels
Channel positions : Front: L R
Sampling rate : 48.0 KHz
Bit depth : 16 bits
Compression mode : Lossy
Stream size : 143 MiB (1%)
Title : Одноголосый закадровый Slavnus Spacedust
Language : Russian
Default : No
Forced : No
Audio #4
ID : 4
Format : DTS
Format/Info : Digital Theater Systems
Format profile : MA / Core
Codec ID : A_DTS
Duration : 1h 29mn
Bit rate mode : Variable
Bit rate : 842 Kbps / 755 Kbps
Channel(s) : 8 channels / 6 channels
Channel positions : Front: L C R, Side: L R, Back: L R, LFE / Front: L C R, Side: L R, LFE
Sampling rate : 48.0 KHz
Bit depth : 16 bits
Compression mode : Lossless / Lossy
Title : Оригинал
Language : Spanish
Default : No
Forced : No
Text #5
ID : 5
Format : UTF-8
Codec ID : S_TEXT/UTF8
Codec ID/Info : UTF-8 Plain Text
Title : Full
Language : Russian
Default : No
Forced : No
Menu
00:00:00.000 : en:00:00:00.000
00:01:59.708 : en:00:01:59.708
00:12:17.625 : en:00:12:17.625
00:18:57.375 : en:00:18:57.375
00:27:32.167 : en:00:27:32.167
00:35:24.667 : en:00:35:24.667
00:44:06.958 : en:00:44:06.958
00:52:46.833 : en:00:52:46.833
01:00:39.042 : en:01:00:39.042
01:08:57.042 : en:01:08:57.042
01:18:40.875 : en:01:18:40.875
01:28:04.167 : en:01:28:04.167

Полноразмерный постер

Скачать

Скачать торрент!

Как скачивать? · Что такое торрент? · Рейтинг и ограничения

Сайт не распространяет и не хранит электронные версии произведений, а лишь предоставляет доступ к создаваемому пользователями каталогу ссылок на торрент-файлы, которые содержат только списки хеш-сумм

[Профиль] [ЛС]
Показать сообщения:    
Ответить на тему

Текущее время: Сегодня 18:07

Часовой пояс: GMT + 4



Вы не можете начинать темы
Вы не можете отвечать на сообщения
Вы не можете редактировать свои сообщения
Вы не можете удалять свои сообщения
Вы не можете голосовать в опросах
Вы не можете прикреплять файлы к сообщениям
Вы не можете скачивать файлы