Гусь - Боксер / Goose Boxer / Liang shan guai zhao (Тай Си Фу / Tai Si-Fu) [1978, Гонконг, боевые искусства, комедия, DVDRip] VO (Jet)

Ответить на тему
 
Автор Сообщение

user ®

Стаж: 11 лет

Сообщений: 15151

Пост Пост: #1 от 25-Июл-2013 21:00

[Цитировать]

Гусь - Боксер / Goose Boxer / Liang shan guai zhao
Страна: Гонконг
Жанр: боевые искусства, комедия
Год выпуска: 1978
Продолжительность: 01:16:44-Перевод: Виктор Береговых (Jet)
Переводчик: Владимир Петрушин
Рип: Public Enemy (((
Оригинальная аудиодорожка: нет-Режиссер: Тай Си Фу / Tai Si-Fu-В ролях: Чарльз Хён Ва Кён, Филлип Ко, Тинь Чин, Ли Хонь Сай, Ли Чунь Хва, Чань Лап Бань-Описание: Молодой парень по имени Чынь Пао становится свидетелем драки между мастером Седым Журавлем и учениками его заклятого врага мастера Луна.Чынь Пао подсматривает несколько движений и в скором времени становится героем в близлежащем городке,прославившись как мастер стиля журавля.Он преподает в местной школе и пользуется всеобщим уважением.Очень скоро в городке появляются заклятые враги мастер Лун и Седой Журавль.Поединок между ними неизбежен и не малую роль в их противоборстве предстоит сыграть Чынь Пао... (В.Береговых)-Релиз групп - -Качество видео: DVDRip (DVD5)
Формат видео: AVI
Видео: XviD, 720x400 (1.80:1), 25 fps, 2336 kbps avg, 0.32 bit/pixel
Аудио : Русский MPEG layer 3, 192 kbps
-

MediaInfo

Format : AVI
Format/Info : Audio Video Interleave
File size : 1.36 GiB
Duration : 1h 16mn
Overall bit rate : 2 538 Kbps
Writing application : VirtualDubMod 1.5.10.2 (build 2540/release)
Writing library : VirtualDubMod build 2540/release
Video
ID : 0
Format : MPEG-4 Visual
Format profile : Advanced Simple@L5
Format settings, BVOP : 1
Format settings, QPel : No
Format settings, GMC : No warppoints
Format settings, Matrix : Custom
Codec ID : XVID
Codec ID/Hint : XviD
Duration : 1h 16mn
Bit rate : 2 336 Kbps
Width : 720 pixels
Height : 400 pixels
Display aspect ratio : 16:9
Frame rate : 25.000 fps
Color space : YUV
Chroma subsampling : 4:2:0
Bit depth : 8 bits
Scan type : Progressive
Compression mode : Lossy
Bits/(Pixel*Frame) : 0.324
Stream size : 1.25 GiB (92%)
Writing library : XviD 73
Audio
ID : 1
Format : MPEG Audio
Format version : Version 1
Format profile : Layer 3
Mode : Joint stereo
Codec ID : 55
Codec ID/Hint : MP3
Duration : 1h 16mn
Bit rate mode : Constant
Bit rate : 192 Kbps
Channel(s) : 2 channels
Sampling rate : 48.0 KHz
Compression mode : Lossy
Stream size : 105 MiB (8%)
Alignment : Aligned on interleaves
Interleave, duration : 40 ms (1.00 video frame)
Interleave, preload duration : 504 ms

Скриншот с названием

Скриншоты

Скачать

Скачать торрент! Гусь - Боксер / Goose Boxer / Liang shan guai zhao (Тай Си Фу / Tai Si-Fu) [1978, Гонконг, боевые искусства, комедия, DVDRip] VO (Jet)

Как скачивать? · Что такое торрент? · Рейтинг и ограничения

Сайт не распространяет и не хранит электронные версии произведений, а лишь предоставляет доступ к создаваемому пользователями каталогу ссылок на торрент-файлы, которые содержат только списки хеш-сумм

[Профиль] [ЛС]
Показать сообщения:    
Ответить на тему

Текущее время: Сегодня 13:34

Часовой пояс: GMT + 4



Вы не можете начинать темы
Вы не можете отвечать на сообщения
Вы не можете редактировать свои сообщения
Вы не можете удалять свои сообщения
Вы не можете голосовать в опросах
Вы не можете прикреплять файлы к сообщениям
Вы не можете скачивать файлы