Корона и дракон / The Crown and the Dragon (Энн К. Блэк / Anne K. Black) [2013, США, фэнтези, приключения, BDRemux 1080p] VO (VANO) + Original Eng + Sub Eng

Ответить на тему
 
Автор Сообщение

user ®

Стаж: 7 лет 7 месяцев

Сообщений: 20008

Пост Пост: #1 от 25-Июл-2013 21:00

[Цитировать]

Корона и дракон / The Crown and the Dragon Год выпуска: 2013
Страна: США
Жанр: фэнтези, приключения
Продолжительность: 01:31:35.948
Перевод: Одноголосый закадровый VANO
Оригинальная аудиодорожка: Английская
Субтитры: Английские (Forced)
Студия: Arrowstorm Entertainment, Wulf / Gourley Productions
Режиссёр: Энн К. Блэк / Anne K. Black
В ролях: Эми Де Брюн, Кайнен Гриффин, David Haydn, Ава Хант, Грант Хатчинсон, Tom Murphy, Киаран О’Грэйди, Никки Поснер, Видал Санчо, Тим Трелоа и др.
Описание: Через истерзанную войной страну, страдающую от жестокого дракона, молодая дворянка сопровождает свою тётю, чтобы доставить древнюю реликвию на коронацию законного короля.
Качество: BDRemux 1080p (The Crown and the Dragon 2013 1080p Blu-ray AVC DTS-HD MA 5.1-HDWinG)
Контейнер: MKV
Видео кодек: MPEG-4 AVC Video
Аудио кодек: DTS-HD Master Audio / Dolby Digital Audio
Видео: MPEG-4 AVC Video / 21962 kbps / 1920x1080p / 23,976 fps / 16:9 / High Profile 4.1
Аудио 1: Русский / Dolby Digital Audio / 5.1 / 48 kHz / 448 kbps / 16-bit / VO VANO
Аудио 2: English / DTS-HD Master Audio / 5.1 / 48 kHz / 2382 kbps / 16-bit / (DTS Core: 5.1 / 48 kHz / 1509 kbps / 16-bit) Оригинал
Навигация по главам: да

Скриншот с названием фильма

MediaInfo

C:\***\Корона и дракон (The Crown and the Dragon) 2013, США, фэнтези, приключения, BDRemux 1080p GORESEWAGE.mkv
General
Unique ID : 193687678023671128653034052052262177310 (0x91B6E3D04129E1839EDCE2F7E009CA1E)
Complete name : C:\***\Корона и дракон (The Crown and the Dragon) 2013, США, фэнтези, приключения, BDRemux 1080p GORESEWAGE.mkv
Format : Matroska
Format version : Version 4 / Version 2
File size : 15.9 GiB
Duration : 1h 31mn
Overall bit rate mode : Variable
Overall bit rate : 24.8 Mbps
Movie name : GORESEWAGE
Encoded date : UTC 2013-07-25 09:42:44
Writing application : mkvmerge v6.1.0 ('Old Devil') built on Mar 31 2013 15:21:18
Writing library : libebml v1.3.0 + libmatroska v1.4.0
Video #1
ID : 1
Format : AVC
Format/Info : Advanced Video Codec
Format profile : High@L4.1
Format settings, CABAC : Yes
Format settings, ReFrames : 4 frames
Codec ID : V_MPEG4/ISO/AVC
Duration : 1h 31mn
Bit rate mode : Variable
Bit rate : 22.3 Mbps
Maximum bit rate : 35.0 Mbps
Width : 1 920 pixels
Height : 1 080 pixels
Display aspect ratio : 16:9
Frame rate mode : Constant
Frame rate : 23.976 fps
Color space : YUV
Chroma subsampling : 4:2:0
Bit depth : 8 bits
Scan type : Progressive
Bits/(Pixel*Frame) : 0.448
Stream size : 14.3 GiB (90%)
Title : GORESEWAGE
Language : English
Default : Yes
Forced : No
Audio #2
ID : 2
Format : AC-3
Format/Info : Audio Coding 3
Mode extension : CM (complete main)
Format settings, Endianness : Big
Codec ID : A_AC3
Duration : 1h 31mn
Bit rate mode : Constant
Bit rate : 448 Kbps
Channel(s) : 6 channels
Channel positions : Front: L C R, Side: L R, LFE
Sampling rate : 48.0 KHz
Bit depth : 16 bits
Compression mode : Lossy
Stream size : 294 MiB (2%)
Title : Одноголосый закадровый VANO
Language : Russian
Default : Yes
Forced : No
Audio #3
ID : 3
Format : DTS
Format/Info : Digital Theater Systems
Format profile : MA / Core
Codec ID : A_DTS
Duration : 1h 31mn
Bit rate mode : Variable
Bit rate : 1 576 Kbps / 1 510 Kbps
Channel(s) : 6 channels
Channel positions : Front: L C R, Side: L R, LFE
Sampling rate : 48.0 KHz
Bit depth : 16 bits
Compression mode : Lossless / Lossy
Title : Оригинал
Language : English
Default : No
Forced : No
Text #4
ID : 4
Format : UTF-8
Codec ID : S_TEXT/UTF8
Codec ID/Info : UTF-8 Plain Text
Title : Forced
Language : English
Default : No
Forced : No
Menu
00:00:00.000 : en:00:00:00.000
00:06:35.186 : en:00:06:35.186
00:16:41.876 : en:00:16:41.876
00:21:49.683 : en:00:21:49.683
00:26:26.376 : en:00:26:26.376
00:36:39.197 : en:00:36:39.197
00:48:11.722 : en:00:48:11.722
00:53:31.834 : en:00:53:31.834
01:02:21.071 : en:01:02:21.071
01:11:40.004 : en:01:11:40.004
01:20:03.507 : en:01:20:03.507
01:26:50.914 : en:01:26:50.914

Полноразмерный постер

Скачать

Скачать торрент!

Как скачивать? · Что такое торрент? · Рейтинг и ограничения

Сайт не распространяет и не хранит электронные версии произведений, а лишь предоставляет доступ к создаваемому пользователями каталогу ссылок на торрент-файлы, которые содержат только списки хеш-сумм

[Профиль] [ЛС]
Показать сообщения:    
Ответить на тему

Текущее время: Сегодня 06:24

Часовой пояс: GMT + 4



Вы не можете начинать темы
Вы не можете отвечать на сообщения
Вы не можете редактировать свои сообщения
Вы не можете удалять свои сообщения
Вы не можете голосовать в опросах
Вы не можете прикреплять файлы к сообщениям
Вы не можете скачивать файлы