Привет от Тима Бакли / Greetings from Tim Buckley (Дэниел Олгрант / Daniel Algrant) [2013, США, драма, биография, музыка, HDRip] VO (А. Кедров)

Ответить на тему
 
Автор Сообщение

user ®

Стаж: 7 лет 7 месяцев

Сообщений: 20008

Пост Пост: #1 от 25-Июл-2013 21:00

[Цитировать]

Привет от Тима Бакли / Greetings from Tim Buckley
Страна: США
Жанр: драма, биография, музыка
Год выпуска: 2013 (Пруф1, Пруф2)
Продолжительность: 01:44:04
Перевод: Одноголосый закадровый А. Кедров
Cубтитры: нет
Оригинальная аудиодорожка: нет
Режиссер: Дэниел Олгрант / Daniel Algrant
В ролях: Пенн Бэджли, Имоджен Путс, Уильям Сэдлер, Норберт Лео Батц, Алекс Зивак, Фрэнк Вуд, Бет Катехис
Описание: В 1991 году молодой Джефф Бакли репетирует перед своим выступлением на бруклинском концерте, посвящённом памяти его отца, умершего фолк-певца, Тима Бакли. Сталкиваясь с наследием человека, которого он едва знал, Джефф заводит дружбу с загадочной девушкой Элли, выступает на концерте и постепенно понимает мощный потенциал своего собственного музыкального голоса.

Сэмпл: http://multi-up.com/887790
Качество видео: HDRip
Формат видео: AVI
Видео: Xvid 720x304 23.98fps 1807Kbps 0.344bits/pixel
Аудио: Dolby AC3 44100Hz stereo 224Kbps

MediaInfo

General
Complete name : D:\TORRENTS\Привет от Тима Бакли.avi
Format : AVI
Format/Info : Audio Video Interleave
File size : 1.48 GiB
Duration : 1h 44mn
Overall bit rate : 2 041 Kbps
Video
ID : 0
Format : MPEG-4 Visual
Format profile : Advanced Simple@L5
Format settings, BVOP : 2
Format settings, QPel : No
Format settings, GMC : No warppoints
Format settings, Matrix : Default (H.263)
Codec ID : XVID
Codec ID/Hint : XviD
Duration : 1h 44mn
Bit rate : 1 808 Kbps
Width : 720 pixels
Height : 304 pixels
Display aspect ratio : 2.35:1
Frame rate : 23.976 fps
Color space : YUV
Chroma subsampling : 4:2:0
Bit depth : 8 bits
Scan type : Progressive
Compression mode : Lossy
Bits/(Pixel*Frame) : 0.344
Stream size : 1.31 GiB (89%)
Writing library : XviD 64
Audio
ID : 1
Format : AC-3
Format/Info : Audio Coding 3
Mode extension : CM (complete main)
Format settings, Endianness : Big
Codec ID : 2000
Duration : 1h 44mn
Source duration : 1h 44mn
Bit rate mode : Constant
Bit rate : 224 Kbps
Channel(s) : 2 channels
Channel positions : Front: L R
Sampling rate : 44.1 KHz
Bit depth : 16 bits
Compression mode : Lossy
Stream size : 167 MiB (11%)
Alignment : Aligned on interleaves
Interleave, duration : 42 ms (1.00 video frame)

Скриншот c названием фильма

Скриншоты

Скачать

Скачать торрент!

Как скачивать? · Что такое торрент? · Рейтинг и ограничения

Сайт не распространяет и не хранит электронные версии произведений, а лишь предоставляет доступ к создаваемому пользователями каталогу ссылок на торрент-файлы, которые содержат только списки хеш-сумм

[Профиль] [ЛС]
Показать сообщения:    
Ответить на тему

Текущее время: Сегодня 16:30

Часовой пояс: GMT + 4



Вы не можете начинать темы
Вы не можете отвечать на сообщения
Вы не можете редактировать свои сообщения
Вы не можете удалять свои сообщения
Вы не можете голосовать в опросах
Вы не можете прикреплять файлы к сообщениям
Вы не можете скачивать файлы