Обливион / Oblivion (Джозеф Косински / Joseph Kosinski) [2013, США, Фантастика, боевик, триллер, приключения, BDRip 1080p] Dub + Original Eng + Sub (Rus, Eng)

Ответить на тему
 
Автор Сообщение

user ®

Стаж: 7 лет 7 месяцев

Сообщений: 20008

Пост Пост: #1 от 25-Июл-2013 14:40

[Цитировать]

Обливион / Oblivion
Страна: США
Жанр: Фантастика, боевик, триллер, приключения
Год выпуска: 2013
Продолжительность: 02:04:42
Перевод: Профессиональный (дублированный) line
Cубтитры: русские, английские
Оригинальная аудиодорожка: английский
Режиссер: Джозеф Косински / Joseph Kosinski
В ролях: Том Круз, Ольга Куриленко, Морган Фримен, Андреа Райзборо, Николай Костер-Валдау, Мелисса Лео, Зои Белл, Эбигейл Лоу, Изабель Лоу, Дэвид Мэдисон
Описание: Можно ли скучать по месту, в котором никогда не был, мечтать о девушке, которую никогда не видел? Добро пожаловать в будущее! Мы больше не можем называть Землю своим домом. Мы выиграли войну, но не смогли сохранить планету…

Тип релиза: BDRip 1080p [HDWinG]
Контейнер: MKV
Видео: 1920x804, (2.40:1), 23.976 fps, 12.7 Мбит/с, 0.344 bit/pixel
Аудио: Russian: 48.0 kHz, AC-3, 3/2 (L,C,R,l,r) + LFE ch, 448 Kbps (6ch)
Аудио 2: English: 48.0 kHz, DTS, 3/2 (L,C,R,l,r) + LFE ch, 1 509 Kbps (6ch)
Субтитры: Russian, English (UTF-8)

MediaInfo

Format : Matroska
Format version : Version 2
File size : 13.1 GiB
Duration : 2h 4mn
Overall bit rate : 15.0 Mbps
Movie name : Oblivion.2013.BluRay.1080p.DTS.x264-HDWinG
Encoded date : UTC 2013-07-24 10:04:59
Writing application : mkvmerge v4.0.0 ('The Stars were mine') сборка от Jun 6 2010 16:18:42
Writing library : libebml v1.0.0 + libmatroska v1.0.0
Video
ID : 1
Format : AVC
Format/Info : Advanced Video Codec
Format profile : High@L4.1
Format settings, CABAC : Yes
Format settings, ReFrames : 5 frames
Codec ID : V_MPEG4/ISO/AVC
Duration : 2h 4mn
Bit rate : 12.7 Mbps
Width : 1 920 pixels
Height : 804 pixels
Display aspect ratio : 2.40:1
Frame rate : 23.976 fps
Color space : YUV
Chroma subsampling : 4:2:0
Bit depth : 8 bits
Scan type : Progressive
Bits/(Pixel*Frame) : 0.344
Stream size : 11.1 GiB (85%)
Title : Oblivion.2013.BluRay.1080p.DTS.x264-HDWinG
Writing library : x264 core 132 r2323+704+51 d571b1c tMod [8-bit@4:2:0 X86_64]
Encoding settings : cabac=1 / ref=5 / deblock=1:-3:-3 / analyse=0x3:0x113 / me=umh / subme=11 / psy=1 / fade_compensate=0.00 / psy_rd=1.02:0.00 / mixed_ref=1 / me_range=32 / chroma_me=1 / trellis=2 / 8x8dct=1 / cqm=0 / deadzone=21,11 / fast_pskip=0 / chroma_qp_offset=-2 / threads=36 / lookahead_threads=6 / sliced_threads=0 / nr=0 / decimate=0 / interlaced=0 / bluray_compat=0 / constrained_intra=0 / fgo=0 / bframes=8 / b_pyramid=2 / b_adapt=2 / b_bias=0 / direct=3 / weightb=1 / open_gop=0 / weightp=2 / keyint=240 / keyint_min=24 / scenecut=40 / intra_refresh=0 / rc=crf / mbtree=0 / crf=17.5000 / qcomp=0.70 / qpmin=0 / qpmax=69 / qpstep=4 / ip_ratio=1.20 / pb_ratio=1.20 / aq=4:0.90 / aq-sensitivity=10.00 / aq-factor=1.00:1.00:1.00 / aq2=0 / aq3=0
Language : English
Default : Yes
Forced : Yes
Audio #1
ID : 2
Format : AC-3
Format/Info : Audio Coding 3
Mode extension : CM (complete main)
Codec ID : A_AC3
Duration : 2h 4mn
Bit rate mode : Constant
Bit rate : 448 Kbps
Channel(s) : 6 channels
Channel positions : Front: L C R, Side: L R, LFE
Sampling rate : 48.0 KHz
Bit depth : 16 bits
Compression mode : Lossy
Stream size : 400 MiB (3%)
Title : 5.1 448 DUB
Language : Russian
Default : Yes
Forced : Yes
Audio #2
ID : 3
Format : DTS
Format/Info : Digital Theater Systems
Codec ID : A_DTS
Duration : 2h 4mn
Bit rate mode : Constant
Bit rate : 1 510 Kbps
Channel(s) : 6 channels
Channel positions : Front: L C R, Side: L R, LFE
Sampling rate : 48.0 KHz
Bit depth : 24 bits
Compression mode : Lossy
Stream size : 1.32 GiB (10%)
Title : DTS 5.1 1510 kbps
Language : English
Default : No
Forced : No
Text #1
ID : 4
Format : UTF-8
Codec ID : S_TEXT/UTF8
Codec ID/Info : UTF-8 Plain Text
Title : Voronine
Language : Russian
Default : No
Forced : No
Text #2
ID : 5
Format : UTF-8
Codec ID : S_TEXT/UTF8
Codec ID/Info : UTF-8 Plain Text
Language : English
Default : No
Forced : No
Скачать

Скачать торрент!

Как скачивать? · Что такое торрент? · Рейтинг и ограничения

Сайт не распространяет и не хранит электронные версии произведений, а лишь предоставляет доступ к создаваемому пользователями каталогу ссылок на торрент-файлы, которые содержат только списки хеш-сумм

[Профиль] [ЛС]
Показать сообщения:    
Ответить на тему

Текущее время: Сегодня 12:34

Часовой пояс: GMT + 4



Вы не можете начинать темы
Вы не можете отвечать на сообщения
Вы не можете редактировать свои сообщения
Вы не можете удалять свои сообщения
Вы не можете голосовать в опросах
Вы не можете прикреплять файлы к сообщениям
Вы не можете скачивать файлы