Любовь по-взрослому / This Is 40 (Джудд Апатоу / Judd Apatow) [2012, США, комедия, BDRip 720p] Dub + Original Eng + Sub (Rus, Eng)

Ответить на тему
 
Автор Сообщение

user ®

Стаж: 7 лет 7 месяцев

Сообщений: 20008

Пост Пост: #1 от 25-Июл-2013 14:40

[Цитировать]

Любовь по-взрослому / This Is 40- Страна: США
Студия: Apatow Productions, Forty Productions
Жанр: комедия
Год выпуска: 2012
Продолжительность: 02:13:44-Перевод: Профессиональный (дублированный)
Cубтитры: русские, английские
Оригинальная аудиодорожка: английский-Режиссер: Джудд Апатоу / Judd Apatow
В ролях: Пол Радд, Лесли Манн, Джон Литгоу, Меган Фокс, Альберт Брукс, Мод Апатоу, Айрис Апатоу, Джейсон Сигел, Энни Мумоло, Роберт Шмигель, Шарлин Йи, Хью Финк-Описание: Спин-офф комедии «Немножко беременна» 2007 года. Взгляд на жизнь Пита и Дебби несколько лет после событий первого фильма: к сложностям брака прибавляются финансовые проблемы.- -Тип релиза: BDRip 720p
Контейнер: MKV
Видео: 1280x534 (2.40:1), 23.976 fps, 4969 Кбит/с, 0.304 bit/pixel
Аудио 1 : Russian: 48.0 kHz, DTS, 3/2 (L,C,R,l,r) + LFE ch, 755 Kbps (6ch)
Аудио 2: English: 48.0 kHz, DTS, 3/2 (L,C,R,l,r) + LFE ch, 1 536 Kbps (6ch)
Субтитры: Russian [Full, Forced], English [SDH]
Дополнительно: Сохранены оригинальные чаптеры как на Blu-Ray.
-

MediaInfo

Format : Matroska
Format version : Version 2
File size : 6.90 GiB
Duration : 2h 13mn
Overall bit rate : 7 387 Kbps
Encoded date : UTC 2013-06-20 06:21:44
Writing application : mkvmerge v5.2.0 ('I can't explain') built on Dec 18 2011 18:12:03
Writing library : libebml v1.2.3 + libmatroska v1.3.0
Video
ID : 1
Format : AVC
Format/Info : Advanced Video Codec
Format profile : High@L4.1
Format settings, CABAC : Yes
Format settings, ReFrames : 12 frames
Codec ID : V_MPEG4/ISO/AVC
Duration : 2h 13mn
Bit rate : 4 976 Kbps
Width : 1 280 pixels
Height : 534 pixels
Display aspect ratio : 2.40:1
Frame rate : 23.976 fps
Color space : YUV
Chroma subsampling : 4:2:0
Bit depth : 8 bits
Scan type : Progressive
Bits/(Pixel*Frame) : 0.304
Stream size : 4.65 GiB (67%)
Title : This.is.40.2012.720p.BluRay.DTS.x264-IRONCLUB
Writing library : x264 core 132 r2309kMod 3b1f1f7
Encoding settings : cabac=1 / ref=12 / deblock=1:-3:-3 / analyse=0x3:0x113 / me=umh / subme=11 / psy=1 / fade_compensate=0.00 / psy_rd=1.05:0.00 / mixed_ref=1 / me_range=48 / chroma_me=1 / trellis=2 / 8x8dct=1 / cqm=0 / deadzone=21,11 / fast_pskip=0 / chroma_qp_offset=-2 / threads=12 / lookahead_threads=2 / sliced_threads=0 / nr=0 / decimate=1 / interlaced=0 / bluray_compat=0 / constrained_intra=0 / bframes=8 / b_pyramid=2 / b_adapt=2 / b_bias=0 / direct=3 / weightb=1 / open_gop=0 / weightp=2 / keyint=250 / keyint_min=23 / scenecut=40 / intra_refresh=0 / rc_lookahead=60 / rc=crf / mbtree=1 / crf=16.5000 / qcomp=0.90 / qpmin=0 / qpmax=69 / qpstep=4 / vbv_maxrate=50000 / vbv_bufsize=62500 / crf_max=0.0 / nal_hrd=none / ip_ratio=1.30 / aq=1:0.85
Language : English
Default : Yes
Forced : Yes
Matrix coefficients : BT.709-5, BT.1361, IEC 61966-2-4 709, SMPTE RP177
Audio #1
ID : 2
Format : DTS
Format/Info : Digital Theater Systems
Codec ID : A_DTS
Duration : 2h 13mn
Bit rate mode : Constant
Bit rate : 755 Kbps
Channel(s) : 6 channels
Channel positions : Front: L C R, Side: L R, LFE
Sampling rate : 48.0 KHz
Bit depth : 24 bits
Compression mode : Lossy
Stream size : 722 MiB (10%)
Title : DTS 5.1 @ 768 kbps - Dub, BD CEE
Language : Russian
Default : Yes
Forced : Yes
Audio #2
ID : 3
Format : DTS
Format/Info : Digital Theater Systems
Codec ID : A_DTS
Duration : 2h 13mn
Bit rate mode : Constant
Bit rate : 1 510 Kbps
Channel(s) : 6 channels
Channel positions : Front: L C R, Side: L R, LFE
Sampling rate : 48.0 KHz
Bit depth : 24 bits
Compression mode : Lossy
Stream size : 1.41 GiB (20%)
Title : DTS 5.1 @ 1536 kbps
Language : English
Default : No
Forced : No
Text #1
ID : 4
Format : UTF-8
Codec ID : S_TEXT/UTF8
Codec ID/Info : UTF-8 Plain Text
Title : Forced
Language : Russian
Default : Yes
Forced : No
Text #2
ID : 5
Format : UTF-8
Codec ID : S_TEXT/UTF8
Codec ID/Info : UTF-8 Plain Text
Language : Russian
Default : No
Forced : No
Text #3
ID : 6
Format : UTF-8
Codec ID : S_TEXT/UTF8
Codec ID/Info : UTF-8 Plain Text
Title : SDH
Language : English
Default : No
Forced : No
Menu
00:00:00.000 : en:00:00:00.000
00:06:54.413 : en:00:06:54.413
00:14:58.188 : en:00:14:58.188
00:21:22.739 : en:00:21:22.739
00:26:22.247 : en:00:26:22.247
00:33:26.963 : en:00:33:26.963
00:40:13.077 : en:00:40:13.077
00:48:30.407 : en:00:48:30.407
00:56:31.179 : en:00:56:31.179
01:01:34.732 : en:01:01:34.732
01:07:10.526 : en:01:07:10.526
01:14:37.347 : en:01:14:37.347
01:24:33.193 : en:01:24:33.193
01:31:19.181 : en:01:31:19.181
01:38:07.715 : en:01:38:07.715
01:46:57.869 : en:01:46:57.869
01:52:14.936 : en:01:52:14.936
01:57:59.655 : en:01:57:59.655
02:04:08.232 : en:02:04:08.232
02:08:37.918 : en:02:08:37.918
Скачать

Скачать торрент!

Как скачивать? · Что такое торрент? · Рейтинг и ограничения

Сайт не распространяет и не хранит электронные версии произведений, а лишь предоставляет доступ к создаваемому пользователями каталогу ссылок на торрент-файлы, которые содержат только списки хеш-сумм

[Профиль] [ЛС]
Показать сообщения:    
Ответить на тему

Текущее время: Сегодня 08:39

Часовой пояс: GMT + 4



Вы не можете начинать темы
Вы не можете отвечать на сообщения
Вы не можете редактировать свои сообщения
Вы не можете удалять свои сообщения
Вы не можете голосовать в опросах
Вы не можете прикреплять файлы к сообщениям
Вы не можете скачивать файлы