Мугамуди / Маска / Mugamoodi / Mask (Мышкин / Myshkin) [2012, Индия, детектив, мюзикл, боевые искусства, DVDRip] Sub Rus

Ответить на тему
 
Автор Сообщение

user ®

Стаж: 12 лет

Сообщений: 15124

Пост Пост: #1 от 25-Июл-2013 11:30

[Цитировать]

Мугамуди / Маска / Mugamoodi / Mask
Страна: Индия
Жанр: детектив, мюзикл, боевые искусства
Год выпуска: 2012
Продолжительность: 02:42:08
Перевод: Субтитры от net
Cубтитры: русские
Оригинальная аудиодорожка: Тамильский
Режиссер: Мышкин / Myshkin
В ролях: Джива, Нарайн, Пуджа Хегде, Нассер, Анупама Кумар, Селва, Гириш Карнад
Описание: Оригинальная история начинается с Ли (Джива), питающего огромную страсть к кунг-фу, легендарному мастеру Брюсу Ли и безграничное уважение к учителю Чандру (Сельва). Однажды на его пути встречается Шакти (Пуджа), дочь помощника комиссара (Насер). И, как это случается, первое впечатление, которое он произвел на девушку, самое ужасное: хулиган, дебошир, обманщик, бездельник и вообще никчемный человек.
В это же время, в городе работает Школа Боевых Искусств «Дракон» под руководством Ангусами (Нараин) . Работает днем, а ночью ее ученики совершают дерзкие налеты на богатые дома. Полиция города поднята на уши, для поимки дерзких убийц и грабителей.
Влюбленный Ли, дабы произвести положительное впечатление на Шакти, ночью, переодевшись в классический костюм супергероя, приходит к ее дому и называет себя Мугамуди (Маска), но тут история совершает финт, благодаря которому Ли оказывается втянутым в полицейское расследование-преследование. Что произойдет дальше и чем все это закончится, вы узнаете, посмотрев весь фильм.
Релиз группы:
Перевод, редакция: net
Благодарность: Tonyvika и Da Kota за помощь и моральную поддержку.
Риппер: randy23
Сэмпл: http://multi-up.com/887558
Качество видео: DVDRip
Формат видео: AVI
Видео: XviD, 720x304, 2.35:1, 23.976 fps, 892 kbps
Аудио: АС3, 48 kHz, 384 kbps, 5.1 (6 ch)
Формат субтитров: hardsub (неотключаемые)

MediaInfo

General
Complete name : C:\Beholder\BOOKS\на отправку\Mugamoodi.2012.DVDRip.XviD.BwTorrents.avi
Format : AVI
Format/Info : Audio Video Interleave
File size : 1.46 GiB
Duration : 2h 42mn
Overall bit rate : 1 286 Kbps
Writing application : VirtualDubMod 1.5.10.3 | www.virtualdub-fr.org || (build 2550/release)
Writing library : VirtualDubMod build 2550/release
Video
ID : 0
Format : MPEG-4 Visual
Format profile : Advanced Simple@L5
Format settings, BVOP : 2
Format settings, QPel : No
Format settings, GMC : No warppoints
Format settings, Matrix : Default (MPEG)
Codec ID : XVID
Codec ID/Hint : XviD
Duration : 2h 42mn
Bit rate : 893 Kbps
Width : 720 pixels
Height : 304 pixels
Display aspect ratio : 2.35:1
Frame rate : 23.976 fps
Color space : YUV
Chroma subsampling : 4:2:0
Bit depth : 8 bits
Scan type : Progressive
Compression mode : Lossy
Bits/(Pixel*Frame) : 0.170
Stream size : 1.01 GiB (69%)
Writing library : XviD 63
Audio
ID : 1
Format : AC-3
Format/Info : Audio Coding 3
Mode extension : CM (complete main)
Format settings, Endianness : Big
Codec ID : 2000
Duration : 2h 42mn
Bit rate mode : Constant
Bit rate : 384 Kbps
Channel(s) : 6 channels
Channel positions : Front: L C R, Side: L R, LFE
Sampling rate : 48.0 KHz
Bit depth : 16 bits
Compression mode : Lossy
Stream size : 445 MiB (30%)
Alignment : Split accross interleaves
Interleave, duration : 42 ms (1.00 video frame)
Interleave, preload duration : 500 ms

Скриншот c названием фильма

Скриншоты

Скачать

Скачать торрент! Мугамуди / Маска / Mugamoodi / Mask (Мышкин / Myshkin) [2012, Индия, детектив, мюзикл, боевые искусства, DVDRip] Sub Rus

Как скачивать? · Что такое торрент? · Рейтинг и ограничения

Сайт не распространяет и не хранит электронные версии произведений, а лишь предоставляет доступ к создаваемому пользователями каталогу ссылок на торрент-файлы, которые содержат только списки хеш-сумм

[Профиль] [ЛС]
Показать сообщения:    
Ответить на тему

Текущее время: Сегодня 13:16

Часовой пояс: GMT + 4



Вы не можете начинать темы
Вы не можете отвечать на сообщения
Вы не можете редактировать свои сообщения
Вы не можете удалять свои сообщения
Вы не можете голосовать в опросах
Вы не можете прикреплять файлы к сообщениям
Вы не можете скачивать файлы