Остров смерти / Чёрная скала / Black Rock (Кэтрин Аселтон / Katie Aselton) [2012, США, ужасы, триллер, BDRip 720p] DVO (Пираты) + Sub (Eng, Spa) + Original Eng

Ответить на тему
 
Автор Сообщение

user ®

Стаж: 7 лет 7 месяцев

Сообщений: 20008

Пост Пост: #1 от 25-Июл-2013 02:00

[Цитировать]

Остров смерти / Чёрная скала / Black Rock
Страна: США
Студия: Submarine Entertainment
Жанр: ужасы, триллер
Год выпуска: 2012
Продолжительность: 01:19:52
Перевод: Любительский (двухголосый закадровый) Пираты
Cубтитры: английские, испанские
Оригинальная аудиодорожка: английский
Режиссер: Кэтрин Аселтон / Katie Aselton
В ролях: Кэтрин Аселтон, Лэйк Белл, Кейт Босворт, Уилл Бовье, Джей Полсон, Анслем Ричардсон, Карл К. Аселтон III, Др. Карл Аселтон, Генри Барронс, Джон Дэвис
Описание: Три подруги детства решают устроить пикник на удаленном острове. Однако незапланированная встреча с агрессивно настроенными ветеранами иракской войны превращает отдых в сущий кошмар


Тип релиза: BDRip 720p
Контейнер: MKV
Видео: MPEG-4 AVC Video / 5 527 kbps / 1280 x 692 / 23,976 fps / 1.85:1 / High Profile 4.1
Аудио 1: Russian / Dolby Digital Audio / 2.0 / 48 kHz / 192 kbps |DVO Пираты|
Аудио 2: English / DTS Audio / 5.1 / 48 kHz / 1509 kbps / 24-bit
Формат субтитров: softsub (SRT)

MediaInfo / Log

Log

---[Information] [22.07.2013 21:33:37] x264 [info]: frame I:871   Avg QP:14.51  size:145231
---[Information] [22.07.2013 21:33:37] x264 [info]: frame P:24854 Avg QP:15.71  size: 54907
---[Information] [22.07.2013 21:33:37] x264 [info]: frame B:89172 Avg QP:18.08  size: 21384
General
Unique ID                                : 222458403300552641457611519416427663616 (0xA75BEE166D579B80AA72501D5D90D100)
Complete name                            : G:\Black Rock.2012.BDRip720p_[***].mkv
Format                                   : Matroska
Format version                           : Version 4 / Version 2
File size                                : 4.12 GiB
Duration                                 : 1h 19mn
Overall bit rate                         : 7 374 Kbps
Movie name                               : Black Rock.2012_[***]
Encoded date                             : UTC 2013-07-24 15:19:48
Writing application                      : mkvmerge v6.3.0 ('You can't stop me!') built on Jun 28 2013 20:09:41
Writing library                          : libebml v1.3.0 + libmatroska v1.4.0
Video
ID                                       : 1
Format                                   : AVC
Format/Info                              : Advanced Video Codec
Format profile                           : High@L4.1
Format settings, CABAC                   : Yes
Format settings, ReFrames                : 9 frames
Codec ID                                 : V_MPEG4/ISO/AVC
Duration                                 : 1h 19mn
Bit rate                                 : 5 527 Kbps
Width                                    : 1 280 pixels
Height                                   : 692 pixels
Display aspect ratio                     : 1.85:1
Frame rate mode                          : Constant
Frame rate                               : 23.976 fps
Color space                              : YUV
Chroma subsampling                       : 4:2:0
Bit depth                                : 8 bits
Scan type                                : Progressive
Bits/(Pixel*Frame)                       : 0.260
Stream size                              : 3.08 GiB (75%)
Title                                    : Black Rock.2012.BDRip720p_Deerhoof
Writing library                          : x264 core 133 r2334 a3ac64b
Encoding settings                        : cabac=1 / ref=9 / deblock=1:-2:-1 / analyse=0x3:0x133 / me=umh / subme=10 / psy=1 / psy_rd=1.00:0.10 / mixed_ref=1 / me_range=32 / chroma_me=1 / trellis=2 / 8x8dct=1 / cqm=0 / deadzone=21,11 / fast_pskip=0 / chroma_qp_offset=-3 / threads=6 / lookahead_threads=1 / sliced_threads=0 / nr=0 / decimate=1 / interlaced=0 / bluray_compat=0 / constrained_intra=0 / bframes=7 / b_pyramid=2 / b_adapt=2 / b_bias=0 / direct=3 / weightb=1 / open_gop=0 / weightp=2 / keyint=240 / keyint_min=23 / scenecut=40 / intra_refresh=0 / rc_lookahead=60 / rc=crf / mbtree=0 / crf=16.5 / qcomp=0.60 / qpmin=0 / qpmax=69 / qpstep=4 / vbv_maxrate=35000 / vbv_bufsize=30000 / crf_max=0.0 / nal_hrd=none / ip_ratio=1.40 / pb_ratio=1.30 / aq=2:0.90
Language                                 : English
Default                                  : Yes
Forced                                   : No
Audio #1
ID                                       : 2
Format                                   : AC-3
Format/Info                              : Audio Coding 3
Mode extension                           : CM (complete main)
Format settings, Endianness              : Big
Codec ID                                 : A_AC3
Duration                                 : 1h 19mn
Bit rate mode                            : Constant
Bit rate                                 : 192 Kbps
Channel(s)                               : 2 channels
Channel positions                        : Front: L R
Sampling rate                            : 48.0 KHz
Bit depth                                : 16 bits
Compression mode                         : Lossy
Stream size                              : 110 MiB (3%)
Title                                    : Любительский (двухголосый закадровый) "Пираты"
Language                                 : Russian
Default                                  : Yes
Forced                                   : No
Audio #2
ID                                       : 3
Format                                   : DTS
Format/Info                              : Digital Theater Systems
Mode                                     : 16
Format settings, Endianness              : Big
Codec ID                                 : A_DTS
Duration                                 : 1h 19mn
Bit rate mode                            : Constant
Bit rate                                 : 1 509 Kbps
Channel(s)                               : 6 channels
Channel positions                        : Front: L C R, Side: L R, LFE
Sampling rate                            : 48.0 KHz
Bit depth                                : 24 bits
Compression mode                         : Lossy
Stream size                              : 862 MiB (20%)
Language                                 : English
Default                                  : No
Forced                                   : No
Text #1
ID                                       : 4
Format                                   : UTF-8
Codec ID                                 : S_TEXT/UTF8
Codec ID/Info                            : UTF-8 Plain Text
Language                                 : English
Default                                  : No
Forced                                   : No
Text #2
ID                                       : 5
Format                                   : UTF-8
Codec ID                                 : S_TEXT/UTF8
Codec ID/Info                            : UTF-8 Plain Text
Language                                 : Spanish
Default                                  : No
Forced                                   : No
Menu
00:00:00.000                             : :Chapter 01
00:02:58.386                             : :Chapter 02
00:06:23.299                             : :Chapter 03
00:09:28.442                             : :Chapter 04
00:12:44.764                             : :Chapter 05
00:17:13.198                             : :Chapter 06
00:21:48.724                             : :Chapter 07
00:24:17.497                             : :Chapter 08
00:26:23.582                             : :Chapter 09
00:29:22.051                             : :Chapter 10
00:31:48.948                             : :Chapter 11
00:33:49.819                             : :Chapter 12
00:35:49.355                             : :Chapter 13
00:38:07.451                             : :Chapter 14
00:40:09.115                             : :Chapter 15
00:42:41.100                             : :Chapter 16
00:47:16.291                             : :Chapter 17
00:50:02.833                             : :Chapter 18
00:53:22.574                             : :Chapter 19
00:59:18.221                             : :Chapter 20
01:03:42.985                             : :Chapter 21
01:06:21.310                             : :Chapter 22
01:08:49.125                             : :Chapter 23
01:15:46.542                             : :Chapter 24
01:19:51.912                             : :Chapter 25

Скриншоты

Скачать

Скачать торрент!

Как скачивать? · Что такое торрент? · Рейтинг и ограничения

Сайт не распространяет и не хранит электронные версии произведений, а лишь предоставляет доступ к создаваемому пользователями каталогу ссылок на торрент-файлы, которые содержат только списки хеш-сумм

[Профиль] [ЛС]
Показать сообщения:    
Ответить на тему

Текущее время: Сегодня 20:19

Часовой пояс: GMT + 4



Вы не можете начинать темы
Вы не можете отвечать на сообщения
Вы не можете редактировать свои сообщения
Вы не можете удалять свои сообщения
Вы не можете голосовать в опросах
Вы не можете прикреплять файлы к сообщениям
Вы не можете скачивать файлы