Дикие цветы на поле битвы / The Wild Flower in the Battle Field / Wildflowers on the Battleground / Deulgughwaneun pietneunde (И Ман %уй / Lee Man-hui ) [1974, Южная Корея, драма, DVDRip] Sub (Rus)

Ответить на тему
 
Автор Сообщение

user ®

Стаж: 13 лет

Сообщений: 15071

Пост Пост: #1 от 24-Июл-2013 16:30

[Цитировать]

Дикие цветы на поле битвы / The Wild Flower in the Battle Field / Wildflowers on the Battleground / Deulgughwaneun pietneunde
Страна: Южная Корея
Жанр: драма
Год выпуска: 1974
Продолжительность: 01:42:37-Переводчик: Владимир Петрушин
Cубтитры: русские (вшитые)
Оригинальная аудиодорожка: есть-Режиссер: И Ман %уй / Lee Man-hui-В ролях: Син Сон Ир, Ким Чон Хон, И Ён Ок, У Ён Чон, О Ю Гён-Описание: Фильм о войне между Северной и Южной Кореей с 1950 по 1953 года.-Релиз групп -- -Качество видео: DVDRip (DVD9)
Формат видео: AVI
Видео: XviD, 720x304 (2.37:1), 23.976 fps, 1762 kbps avg, 0.34 bit/pixel
Аудио: Корейский MEPG layer 3, 2 ch, 128 kbps

MediaInfo

Format : AVI
Format/Info : Audio Video Interleave
File size : 1.36 GiB
Duration : 1h 42mn
Overall bit rate : 1 900 Kbps
Writing application : VirtualDubMod 1.5.10.3 | www.virtualdub-fr.org || (build 2550/release)
Writing library : VirtualDubMod build 2550/release
Video
ID : 0
Format : MPEG-4 Visual
Format profile : Advanced Simple@L5
Format settings, BVOP : 1
Format settings, QPel : No
Format settings, GMC : No warppoints
Format settings, Matrix : Custom
Codec ID : XVID
Codec ID/Hint : XviD
Duration : 1h 42mn
Bit rate : 1 762 Kbps
Width : 720 pixels
Height : 304 pixels
Display aspect ratio : 2.35:1
Frame rate : 23.976 fps
Color space : YUV
Chroma subsampling : 4:2:0
Bit depth : 8 bits
Scan type : Progressive
Compression mode : Lossy
Bits/(Pixel*Frame) : 0.336
Stream size : 1.26 GiB (93%)
Writing library : XviD 73
Audio
ID : 1
Format : MPEG Audio
Format version : Version 1
Format profile : Layer 3
Codec ID : 55
Codec ID/Hint : MP3
Duration : 1h 42mn
Bit rate mode : Constant
Bit rate : 128 Kbps
Channel(s) : 2 channels
Sampling rate : 48.0 KHz
Compression mode : Lossy
Stream size : 94.0 MiB (7%)
Alignment : Aligned on interleaves
Interleave, duration : 42 ms (1.00 video frame)
Interleave, preload duration : 504 ms

Скриншот с названием

Скриншоты

Скачать

Скачать торрент! Дикие цветы на поле битвы / The Wild Flower in the Battle Field / Wildflowers on the Battleground / Deulgughwaneun pietneunde (И Ман %уй / Lee Man-hui ) [1974, Южная Корея, драма, DVDRip] Sub (Rus)

Как скачивать? · Что такое торрент? · Рейтинг и ограничения

Сайт не распространяет и не хранит электронные версии произведений, а лишь предоставляет доступ к создаваемому пользователями каталогу ссылок на торрент-файлы, которые содержат только списки хеш-сумм

[Профиль] [ЛС]
Показать сообщения:    
Ответить на тему

Текущее время: Сегодня 17:38

Часовой пояс: GMT + 4



Вы не можете начинать темы
Вы не можете отвечать на сообщения
Вы не можете редактировать свои сообщения
Вы не можете удалять свои сообщения
Вы не можете голосовать в опросах
Вы не можете прикреплять файлы к сообщениям
Вы не можете скачивать файлы