Афтершок / Aftershock (Николас Лопез / Nicolas Lopez) [2012, США, Чили, триллер, драма, ужасы, криминал, BDRemux 1080p] DVO (DeadSno & den904) + Sub (Eng, Spa) + Original Eng

Ответить на тему
 
Автор Сообщение

user ®

Стаж: 7 лет 7 месяцев

Сообщений: 20008

Пост Пост: #1 от 24-Июл-2013 16:30

[Цитировать]

Афтершок / Aftershock
Страна: США, Чили
Студия: Cross Creek Pictures, Dragonfly Entertainment, Vertebra Films
Жанр: триллер, драма, ужасы, криминал
Год выпуска: 2012
Продолжительность: 01:29:16
Перевод: Любительский (двухголосый закадровый) DeadSno & den904
Cубтитры: английские, испанские
Оригинальная аудиодорожка: английский
Режиссер: Николас Лопез / Nicolas Lopez
В ролях: Элай Рот, Андреа Ошварт, Эриель Леви, Николас Мартинез, Лоренца Иззо, Наташа Яровенко, Селена Гомес, Игнасия Алламанд, Дайана Амиго, Пас Баскуньян
Описание: Находясь в Чили, группа путешественников посещает подземный ночной клуб в тот самый момент, когда начинается мощное землетрясение. Выбравшись на поверхность, они тут же понимают, что кошмар для них только начался.


Тип релиза: BDRemux 1080p
Контейнер: MKV
Видео: MPEG-4 AVC Video / 22790 kbps / 1080p / 23,976 fps / 16:9 / High Profile 4.1
Аудио 1: Russian / Dolby Digital Audio / 5.1 / 48 kHz / 384 kbps / DVO (DeadSno & den904)
Аудио 2: English / DTS-HD Master Audio / 5.1 / 48 kHz / 3986 kbps / 24-bit (DTS Core: 5.1 / 48 kHz / 1509 kbps / 24-bit)
Аудио 3: English / Dolby Digital Audio / 2.0 / 48 kHz / 192 kbps / Комментарии
Формат субтитров: softsub (SRT)

MediaInfo

General
Unique ID                                : 180994382487398749729272645877746316101 (0x882A40068AF77B8BBB53386C606F3345)
Complete name                            : G:\Aftershock.2012.1080p.BDRemux_[***].mkv
Format                                   : Matroska
Format version                           : Version 4 / Version 2
File size                                : 17.1 GiB
Duration                                 : 1h 29mn
Overall bit rate mode                    : Variable
Overall bit rate                         : 27.4 Mbps
Movie name                               : Aftershock.2012.
Encoded date                             : UTC 2013-07-23 16:38:09
Writing application                      : mkvmerge v6.3.0 ('You can't stop me!') built on Jun 28 2013 20:09:41
Writing library                          : libebml v1.3.0 + libmatroska v1.4.0
Video
ID                                       : 1
Format                                   : AVC
Format/Info                              : Advanced Video Codec
Format profile                           : High@L4.1
Format settings, CABAC                   : Yes
Format settings, ReFrames                : 2 frames
Codec ID                                 : V_MPEG4/ISO/AVC
Duration                                 : 1h 29mn
Bit rate mode                            : Variable
Width                                    : 1 920 pixels
Height                                   : 1 080 pixels
Display aspect ratio                     : 16:9
Frame rate mode                          : Constant
Frame rate                               : 23.976 fps
Color space                              : YUV
Chroma subsampling                       : 4:2:0
Bit depth                                : 8 bits
Scan type                                : Progressive
Title                                    : Aftershock.2012_[***]
Language                                 : English
Default                                  : Yes
Forced                                   : No
Audio #1
ID                                       : 2
Format                                   : AC-3
Format/Info                              : Audio Coding 3
Mode extension                           : CM (complete main)
Format settings, Endianness              : Big
Codec ID                                 : A_AC3
Duration                                 : 1h 29mn
Bit rate mode                            : Constant
Bit rate                                 : 384 Kbps
Channel(s)                               : 6 channels
Channel positions                        : Front: L C R, Side: L R, LFE
Sampling rate                            : 48.0 KHz
Bit depth                                : 16 bits
Compression mode                         : Lossy
Stream size                              : 245 MiB (1%)
Title                                    : Любительский (двухголосый закадровый) [DeadSno & den904]
Language                                 : Russian
Default                                  : Yes
Forced                                   : No
Audio #2
ID                                       : 3
Format                                   : DTS
Format/Info                              : Digital Theater Systems
Format profile                           : MA / Core
Mode                                     : 16
Format settings, Endianness              : Big
Codec ID                                 : A_DTS
Duration                                 : 1h 29mn
Bit rate mode                            : Variable
Bit rate                                 : Unknown / 1 509 Kbps
Channel(s)                               : 6 channels
Channel positions                        : Front: L C R, Side: L R, LFE
Sampling rate                            : 48.0 KHz
Bit depth                                : 24 bits
Compression mode                         : Lossless / Lossy
Language                                 : English
Default                                  : No
Forced                                   : No
Audio #3
ID                                       : 4
Format                                   : AC-3
Format/Info                              : Audio Coding 3
Mode extension                           : CM (complete main)
Format settings, Endianness              : Big
Codec ID                                 : A_AC3
Duration                                 : 1h 29mn
Bit rate mode                            : Constant
Bit rate                                 : 192 Kbps
Channel(s)                               : 2 channels
Channel positions                        : Front: L R
Sampling rate                            : 48.0 KHz
Bit depth                                : 16 bits
Compression mode                         : Lossy
Stream size                              : 123 MiB (1%)
Title                                    : Комментарии
Language                                 : English
Default                                  : No
Forced                                   : No
Text #1
ID                                       : 5
Format                                   : UTF-8
Codec ID                                 : S_TEXT/UTF8
Codec ID/Info                            : UTF-8 Plain Text
Language                                 : English
Default                                  : No
Forced                                   : No
Text #2
ID                                       : 6
Format                                   : UTF-8
Codec ID                                 : S_TEXT/UTF8
Codec ID/Info                            : UTF-8 Plain Text
Language                                 : Spanish
Default                                  : No
Forced                                   : No
Menu
00:00:00.000                             : :Chapter 01
00:03:39.260                             : :Chapter 02
00:07:31.742                             : :Chapter 03
00:16:05.673                             : :Chapter 04
00:23:28.407                             : :Chapter 05
00:30:26.407                             : :Chapter 06
00:38:32.184                             : :Chapter 07
00:45:00.614                             : :Chapter 08
00:50:40.954                             : :Chapter 09
00:56:45.944                             : :Chapter 10
01:04:07.176                             : :Chapter 11
01:12:24.381                             : :Chapter 12
01:20:05.842                             : :Chapter 13
01:23:56.865                             : :Chapter 14
01:29:16.100                             : :Chapter 15

Скриншоты


Скачать

Скачать торрент!

Как скачивать? · Что такое торрент? · Рейтинг и ограничения

Сайт не распространяет и не хранит электронные версии произведений, а лишь предоставляет доступ к создаваемому пользователями каталогу ссылок на торрент-файлы, которые содержат только списки хеш-сумм

[Профиль] [ЛС]
Показать сообщения:    
Ответить на тему

Текущее время: Сегодня 05:54

Часовой пояс: GMT + 4



Вы не можете начинать темы
Вы не можете отвечать на сообщения
Вы не можете редактировать свои сообщения
Вы не можете удалять свои сообщения
Вы не можете голосовать в опросах
Вы не можете прикреплять файлы к сообщениям
Вы не можете скачивать файлы