Трое в лодке, не считая собаки (Наум Бирман) [1979, мюзикл, комедия, BDRip 720p]

Ответить на тему
 
Автор Сообщение

user ®

Стаж: 7 лет 7 месяцев

Сообщений: 20008

Пост Пост: #1 от 23-Июл-2013 22:47

[Цитировать]

Трое в лодке, не считая собаки- Год выпуска: 1979
Страна: СССР-Жанры: мюзикл, комедия
Продолжительность: 02:12:26-Cубтитры: нет
Навигация по главам: нет-Режиссер: Наум Бирман
Сценарий: Леонид Зорин-В ролях: Андрей Миронов, Александр Ширвиндт, Михаил Державин, Лариса Голубкина, Алина Покровская, Ирина Мазуркевич, Георгий Штиль, Зиновий Гердт, Татьяна Пельтцер, Ольга Волкова-Описание: По одноименной повести Джерома К. Джерома. Однажды трое приятелей-холостяков, лондонских жителей, решили сделаться ближе к природе и отправиться в лодочное путешествие по Темзе, прихватив с собой собачку Монморенси...-Доп. информация: Полная реставрация изображения и звука. Исходные киноматериалы подготовлены Госфильмофондом России. Покадровая цифровая реставрация изображения, ремастеринг звука и авторинг проведены объединением «Крупный план».-Релиз от - -Качество: BDRip (manofgod)
Формат: MKV
Видео кодек: x264
Аудио кодек: DTS, FLAC
Видео 1: ~ 4 655 Kbps, 992x720, 23.976 fps
Видео 2: ~ 4 880 Kbps, 992x720, 23.976 fps
Аудио 1: Russian - DTS, ~1 509 Kbps, 48KHz, 6ch
Аудио 2: Russian - FLAC, ~663 Kbps, 48KHz, 1ch

Знаете ли вы, что...

  • Многие эпизоды в фильме появились как экспромт.
  • Фильм снимался в Калининградской области в окрестностях г. Советск и г. Неман, а также в самих городах, а роль Темзы сыграли пограничная река Неман и река Шешупе.
  • Роль Монморанси играли два фокстерьера с весьма несхожими характерами.

x264 log 992x720

raw [info]: 992x720p 1:1 @ 24000/1001 fps (cfr)
x264 [info]: using SAR=1/1
x264 [info]: using cpu capabilities: MMX2 SSE2Fast SSSE3 SSE4.2 AVX
x264 [info]: profile High, level 4.1
x264 [info]: frame I:515 Avg QP:15.98 size:109837
x264 [info]: frame P:21075 Avg QP:18.77 size: 49791
x264 [info]: frame B:73940 Avg QP:20.78 size: 16402
x264 [info]: consecutive B-frames: 1.7% 2.5% 10.7% 18.3% 14.4% 49.8% 2.2% 0.1% 0.2% 0.0%
x264 [info]: mb I I16..4: 3.3% 76.5% 20.2%
x264 [info]: mb P I16..4: 0.2% 11.0% 1.2% P16..4: 28.9% 41.1% 17.1% 0.0% 0.0% skip: 0.4%
x264 [info]: mb B I16..4: 0.0% 0.8% 0.1% B16..8: 38.0% 28.0% 6.6% direct: 6.3% skip:20.2% L0:36.9% L1:46.8% BI:16.3%
x264 [info]: 8x8 transform intra:86.4% inter:57.1%
x264 [info]: direct mvs spatial:98.4% temporal:1.6%
x264 [info]: coded y,uvDC,uvAC intra: 97.3% 74.8% 44.3% inter: 37.9% 20.7% 6.4%
x264 [info]: i16 v,h,dc,p: 42% 10% 5% 43%
x264 [info]: i8 v,h,dc,ddl,ddr,vr,hd,vl,hu: 7% 9% 6% 9% 14% 13% 15% 11% 14%
x264 [info]: i4 v,h,dc,ddl,ddr,vr,hd,vl,hu: 9% 7% 2% 8% 17% 16% 16% 11% 13%
x264 [info]: i8c dc,h,v,p: 35% 31% 19% 16%
x264 [info]: Weighted P-Frames: Y:3.2% UV:1.1%
x264 [info]: ref P L0: 49.2% 14.1% 17.3% 5.4% 4.6% 3.2% 3.3% 2.4% 0.4% 0.0%
x264 [info]: ref B L0: 86.3% 8.1% 2.6% 1.3% 0.9% 0.5% 0.3%
x264 [info]: ref B L1: 95.9% 4.1%
x264 [info]: kb/s:4655.55
encoded 95530 frames, 8.76 fps, 4655.56 kb/s

Подробные тех. данные 1 серии

Общее
Уникальный идентификатор : 227883791500306547642579370387220742226 (0xAB70D260C52202F996346B19F6544052)
Полное имя : D:\Troe v lodke ne schitaya sobaki.1979.BluRay.DTS.FLAC.HDCLUB\Troe v lodke ne schitaya sobaki.1979.992х720.BluRay.DTS.FLAC.HDCLUB\Troe v lodke ne schitaya sobaki.1979.992х720.p.1.BluRay.DTS.FLAC.HDCLUB.mkv
Формат : Matroska
Версия формата : Version 2
Размер файла : 3,17 Гбайт
Продолжительность : 1 ч. 6 м.
Режим общего битрейта : Переменный
Общий поток : 6830 Кбит/сек
Дата кодирования : UTC 2013-04-27 18:42:56
Программа кодирования : mkvmerge v5.8.0 ('No Sleep / Pillow') built on Sep 2 2012 15:37:04
Библиотека кодирования : libebml v1.2.3 + libmatroska v1.3.0
Видео
Идентификатор : 1
Формат : AVC
Формат/Информация : Advanced Video Codec
Профиль формата : High@L4.1
Параметр CABAC формата : Да
Параметр ReFrames формата : 8 кадров
Идентификатор кодека : V_MPEG4/ISO/AVC
Продолжительность : 1 ч. 6 м.
Номинальный битрейт : 4655 Кбит/сек
Ширина : 992 пикселя
Высота : 720 пикселей
Соотношение сторон : 1,378
Режим частоты кадров : Постоянный
Частота кадров : 23,976 кадра/сек
Цветовое пространство : YUV
Субдискретизация насыщенности : 4:2:0
Битовая глубина : 8 бит
Тип развёртки : Прогрессивная
Бит/(Пиксели*Кадры) : 0.272
Заголовок : Трое в лодке, не считая собаки (1979) - Release for HDClub
Библиотека кодирования : x264 core 130 r2273 b3065e6
Настройки программы : cabac=1 / ref=8 / deblock=1:-3:-3 / analyse=0x3:0x113 / me=umh / subme=11 / psy=1 / psy_rd=1.10:0.00 / mixed_ref=1 / me_range=32 / chroma_me=1 / trellis=2 / 8x8dct=1 / cqm=0 / deadzone=21,11 / fast_pskip=0 / chroma_qp_offset=-2 / threads=12 / lookahead_threads=2 / sliced_threads=0 / nr=0 / decimate=0 / interlaced=0 / bluray_compat=0 / constrained_intra=0 / bframes=9 / b_pyramid=2 / b_adapt=2 / b_bias=0 / direct=3 / weightb=1 / open_gop=0 / weightp=2 / keyint=240 / keyint_min=23 / scenecut=40 / intra_refresh=0 / rc_lookahead=120 / rc=2pass / mbtree=0 / bitrate=4655 / ratetol=1.0 / qcomp=0.70 / qpmin=0 / qpmax=69 / qpstep=4 / cplxblur=20.0 / qblur=0.5 / vbv_maxrate=50000 / vbv_bufsize=62500 / nal_hrd=none / ip_ratio=1.40 / pb_ratio=1.30 / aq=2:0.90
Язык : Russian
Default : Да
Forced : Нет
Основные цвета : BT.709
Характеристики трансфера : BT.709
Коэффициенты матрицы : BT.709
Аудио #1
Идентификатор : 2
Формат : DTS
Формат/Информация : Digital Theater Systems
Режим : 16
Параметр Endianness формата : Big
Идентификатор кодека : A_DTS
Продолжительность : 1 ч. 6 м.
Вид битрейта : Постоянный
Битрейт : 1509 Кбит/сек
Каналы : 6 каналов
Расположение каналов : Front: L C R, Side: L R, LFE
Частота : 48,0 КГц
Битовая глубина : 24 бит
Метод сжатия : С потерями
Задержка видео : 21 мс.
Размер потока : 717 Мбайт (22%)
Заголовок : Оригинал, DTS 48/24 1509 Kbps 5/1
Язык : Russian
Default : Да
Forced : Нет
Аудио #2
Идентификатор : 3
Формат : FLAC
Формат/Информация : Free Lossless Audio Codec
Идентификатор кодека : A_FLAC
Продолжительность : 1 ч. 6 м.
Вид битрейта : Переменный
Каналы : 1 канал
Частота : 48,0 КГц
Битовая глубина : 24 бит
Заголовок : Оригинал, FLAC 48/24 663 Kbps 1/0
Библиотека кодирования : libFLAC 1.2.1 (UTC 2007-09-17)
Язык : Russian
Default : Нет
Forced : Нет

Подробные тех. данные 2 серии

General
Unique ID : 226797110748369805518194891601579502518 (0xAA9F88E1622D647E85DAACFF3C526BB6)
Complete name : D:\Фильмы\Наши\Troe v lodke ne schitaya sobaki.1979.992х720.BluRay.DTS.FLAC.HDCLUB\Troe v lodke ne schitaya sobaki.1979.992х720.p.2.BluRay.DTS.FLAC.HDCLUB.mkv
Format : Matroska
Format version : Version 2
File size : 3.27 GiB
Duration : 1h 6mn
Overall bit rate mode : Variable
Overall bit rate : 7 049 Kbps
Encoded date : UTC 2013-04-27 18:55:01
Writing application : mkvmerge v5.8.0 ('No Sleep / Pillow') built on Sep 2 2012 15:37:04
Writing library : libebml v1.2.3 + libmatroska v1.3.0
Video
ID : 1
Format : AVC
Format/Info : Advanced Video Codec
Format profile : High@L4.1
Format settings, CABAC : Yes
Format settings, ReFrames : 8 frames
Codec ID : V_MPEG4/ISO/AVC
Duration : 1h 6mn
Nominal bit rate : 4 880 Kbps
Width : 992 pixels
Height : 720 pixels
Display aspect ratio : 1.378
Frame rate mode : Constant
Frame rate : 23.976 fps
Color space : YUV
Chroma subsampling : 4:2:0
Bit depth : 8 bits
Scan type : Progressive
Bits/(Pixel*Frame) : 0.285
Title : Трое в лодке, не считая собаки (1979) - Release for HDClub
Writing library : x264 core 130 r2273 b3065e6
Encoding settings : cabac=1 / ref=8 / deblock=1:-3:-3 / analyse=0x3:0x113 / me=umh / subme=11 / psy=1 / psy_rd=1.10:0.00 / mixed_ref=1 / me_range=32 / chroma_me=1 / trellis=2 / 8x8dct=1 / cqm=0 / deadzone=21,11 / fast_pskip=0 / chroma_qp_offset=-2 / threads=12 / lookahead_threads=2 / sliced_threads=0 / nr=0 / decimate=0 / interlaced=0 / bluray_compat=0 / constrained_intra=0 / bframes=9 / b_pyramid=2 / b_adapt=2 / b_bias=0 / direct=3 / weightb=1 / open_gop=0 / weightp=2 / keyint=240 / keyint_min=23 / scenecut=40 / intra_refresh=0 / rc_lookahead=120 / rc=2pass / mbtree=0 / bitrate=4880 / ratetol=1.0 / qcomp=0.70 / qpmin=0 / qpmax=69 / qpstep=4 / cplxblur=20.0 / qblur=0.5 / vbv_maxrate=50000 / vbv_bufsize=62500 / nal_hrd=none / ip_ratio=1.40 / pb_ratio=1.30 / aq=2:0.90
Language : Russian
Default : Yes
Forced : No
Color primaries : BT.709
Transfer characteristics : BT.709
Matrix coefficients : BT.709
Audio #1
ID : 2
Format : DTS
Format/Info : Digital Theater Systems
Mode : 16
Format settings, Endianness : Big
Codec ID : A_DTS
Duration : 1h 6mn
Bit rate mode : Constant
Bit rate : 1 509 Kbps
Channel(s) : 6 channels
Channel positions : Front: L C R, Side: L R, LFE
Sampling rate : 48.0 KHz
Bit depth : 24 bits
Compression mode : Lossy
Delay relative to video : 21ms
Stream size : 717 MiB (21%)
Title : Оригинал, DTS 48/24 1509 Kbps 5/1
Language : Russian
Default : Yes
Forced : No
Audio #2
ID : 3
Format : FLAC
Format/Info : Free Lossless Audio Codec
Codec ID : A_FLAC
Duration : 1h 6mn
Bit rate mode : Variable
Channel(s) : 1 channel
Sampling rate : 48.0 KHz
Bit depth : 24 bits
Title : Оригинал, FLAC 48/24 670 Kbps 1/0
Writing library : libFLAC 1.2.1 (UTC 2007-09-17)
Language : Russian
Default : No
Forced : No

Скриншоты

Скачать

Скачать торрент!

Как скачивать? · Что такое торрент? · Рейтинг и ограничения

Сайт не распространяет и не хранит электронные версии произведений, а лишь предоставляет доступ к создаваемому пользователями каталогу ссылок на торрент-файлы, которые содержат только списки хеш-сумм

[Профиль] [ЛС]
Показать сообщения:    
Ответить на тему

Текущее время: Сегодня 21:42

Часовой пояс: GMT + 4



Вы не можете начинать темы
Вы не можете отвечать на сообщения
Вы не можете редактировать свои сообщения
Вы не можете удалять свои сообщения
Вы не можете голосовать в опросах
Вы не можете прикреплять файлы к сообщениям
Вы не можете скачивать файлы