Дублёр (Евгений Абызов) [2012, комедия, BDRip 1080p]

Ответить на тему
 
Автор Сообщение

user ®

Стаж: 7 лет 7 месяцев

Сообщений: 20008

Пост Пост: #1 от 23-Июл-2013 22:46

[Цитировать]

Дублёр
Страна: Россия
Студия: Enjoy Movies
Жанр: комедия
Год выпуска: 2012
Продолжительность: 01:23:34
Субтитры: нет
Навигация по главам: есть
Режиссер: Евгений Абызов
В ролях: Александр Ревва, Кристина Асмус, Дмитрий Хрусталев, Людмила Артемьева, Татьяна Орлова, Ксения Буравская, Варвара Малкова, Александра Кимаева, Евгений Шиманович, Алексей Рязанцев
Описание: Главный герой нашей истории - успешный актер, звезда шоу-бизнеса Игорь Успенский. Его жизнь - сплошные съемки, концерты, презентации, корпоративы, интервью и светские тусовки. Он вынужден «крутиться» день и ночь, у него нет выходных и праздников. А его очаровательная жена и прекрасная дочка видят его в лучшем случае поздно ночью, когда он приезжает домой, чтобы поспать хотя бы пару часов. Но все труды не проходят даром. Игорь очень популярен и однажды его кандидатуру выдвигают на премию «Человек года» - теперь ему нужно еще больше времени, чтобы победить главного конкурента - певца Михаила Стасова, главные хиты которого свели с ума всех женщин России...

Релиз: fanatus
Качество видео: BDRip 1080p
Исходник: Blu-Ray (Rus)
Контейнер: MKV
Видео: MPEG-4 AVC, 10500 kbps, 1920x872 (2.35:1), 24.000 fps, 0.261 bit/pixel
Аудио: DTS, 6 ch, 48 kHz, 1510 kbps

MediaInfo

General
Unique ID : 207008532541172615180858980857413444939 (0x9BBC64A5E70686C59B2C34A0E3AD254B)
Complete name : D:\Dubler.2012.x264.BDRip.1080p.fanatus.mkv
Format : Matroska
Format version : Version 2
File size : 7.01 GiB
Duration : 1h 23mn
Overall bit rate : 12.0 Mbps
Movie name : Dubler (2012) - fanatus
Encoded date : UTC 2013-05-11 02:20:26
Writing application : mkvmerge v3.4.0 ('Rapunzel') сборка от May 15 2010 09:38:20
Writing library : libebml v0.8.0 + libmatroska v0.9.0
Video
ID : 1
Format : AVC
Format/Info : Advanced Video Codec
Format profile : High@L4.1
Format settings, CABAC : Yes
Format settings, ReFrames : 4 frames
Codec ID : V_MPEG4/ISO/AVC
Duration : 1h 23mn
Bit rate : 10.5 Mbps
Width : 1 920 pixels
Height : 872 pixels
Display aspect ratio : 2.2:1
Frame rate : 24.000 fps
Color space : YUV
Chroma subsampling : 4:2:0
Bit depth : 8 bits
Scan type : Progressive
Bits/(Pixel*Frame) : 0.261
Stream size : 5.99 GiB (85%)
Title : Dubler (2012)
Writing library : x264 core 132 r2323+704+51 d571b1c tMod [8-bit@all X86]
Encoding settings : cabac=1 / ref=4 / deblock=1:-3:-3 / analyse=0x3:0x113 / me=tesa / subme=11 / psy=1 / fade_compensate=0.00 / psy_rd=1.05:0.05 / mixed_ref=1 / me_range=48 / chroma_me=1 / trellis=2 / 8x8dct=1 / cqm=0 / deadzone=21,11 / fast_pskip=0 / chroma_qp_offset=-3 / threads=16 / lookahead_threads=2 / sliced_threads=0 / nr=0 / decimate=0 / interlaced=0 / bluray_compat=0 / constrained_intra=0 / fgo=0 / bframes=9 / b_pyramid=2 / b_adapt=2 / b_bias=0 / direct=3 / weightb=1 / open_gop=0 / weightp=2 / keyint=240 / keyint_min=24 / scenecut=40 / intra_refresh=0 / rc_lookahead=240 / rc=2pass / mbtree=0 / bitrate=10500 / ratetol=1.0 / qcomp=0.75 / qpmin=0 / qpmax=69 / qpstep=4 / cplxblur=20.0 / qblur=0.5 / vbv_maxrate=50000 / vbv_bufsize=62500 / nal_hrd=none / ip_ratio=1.30 / pb_ratio=1.20 / aq=4:0.80 / aq-sensitivity=10.00 / aq-factor=1.00:1.00:1.00 / aq2=0 / aq3=0
Language : Russian
Default : Yes
Forced : No
Matrix coefficients : BT.709-5, BT.1361, IEC 61966-2-4 709, SMPTE RP177
Audio
ID : 2
Format : DTS
Format/Info : Digital Theater Systems
Codec ID : A_DTS
Duration : 1h 23mn
Bit rate mode : Constant
Bit rate : 1 510 Kbps
Channel(s) : 6 channels
Channel positions : Front: L C R, Side: L R, LFE
Sampling rate : 48.0 KHz
Bit depth : 16 bits
Compression mode : Lossy
Stream size : 902 MiB (13%)
Title : Original
Language : Russian
Default : Yes
Forced : No
Menu
00:00:00.000 : en:
00:06:00.375 : en:
00:13:55.833 : en:
00:22:29.875 : en:
00:27:09.666 : en:
00:36:01.041 : en:
00:42:06.666 : en:
00:50:57.041 : en:
01:00:46.458 : en:
01:05:38.166 : en:
01:10:03.708 : en:
01:20:13.291 : en:

x264 [info]

x264 [info]: 1920x872p 1:1 @ 24/1 fps (cfr)
x264 [info]: frame I:1229 Avg QP:15.18 size:217493
x264 [info]: frame P:29206 Avg QP:17.22 size: 90276
x264 [info]: frame B:89910 Avg QP:18.27 size: 40835
x264 [info]: consecutive B-frames: 3.3% 4.7% 13.9% 19.4% 19.5% 31.1% 6.6% 0.8% 0.6% 0.2%
x264 [info]: mb I I16..4: 18.0% 55.4% 26.6%
x264 [info]: mb P I16..4: 5.4% 21.9% 2.3% P16..4: 25.4% 29.1% 9.3% 0.0% 0.0% skip: 6.7%
x264 [info]: mb B I16..4: 1.5% 3.8% 0.3% B16..8: 29.7% 21.9% 3.9% direct:14.8% skip:24.1% L0:41.3% L1:39.0% BI:19.8%
x264 [info]: 8x8 transform intra:70.5% inter:57.1%
x264 [info]: direct mvs spatial:98.7% temporal:1.3%
x264 [info]: coded y,uvDC,uvAC intra: 75.8% 84.1% 62.1% inter: 35.1% 52.6% 22.5%
x264 [info]: i16 v,h,dc,p: 35% 12% 16% 37%
x264 [info]: i8 v,h,dc,ddl,ddr,vr,hd,vl,hu: 14% 10% 17% 8% 10% 11% 10% 10% 12%
x264 [info]: i4 v,h,dc,ddl,ddr,vr,hd,vl,hu: 21% 11% 24% 6% 9% 8% 7% 6% 7%
x264 [info]: i8c dc,h,v,p: 48% 20% 21% 10%
x264 [info]: Weighted P-Frames: Y:2.5% UV:1.7%
x264 [info]: ref P L0: 54.6% 10.1% 24.3% 9.6% 1.4% 0.0%
x264 [info]: ref B L0: 87.9% 9.9% 2.3%
x264 [info]: ref B L1: 94.3% 5.7%
x264 [info]: kb/s:10490.44
x264 [info]: encoded 120345 frames, 1.275 fps, 10490.44 kb/s, 6270.8 MB

Скриншот c названием фильма

Скриншоты

Source vs Rip




Скачать

Скачать торрент!

Как скачивать? · Что такое торрент? · Рейтинг и ограничения

Сайт не распространяет и не хранит электронные версии произведений, а лишь предоставляет доступ к создаваемому пользователями каталогу ссылок на торрент-файлы, которые содержат только списки хеш-сумм

[Профиль] [ЛС]
Показать сообщения:    
Ответить на тему

Текущее время: Сегодня 15:52

Часовой пояс: GMT + 4



Вы не можете начинать темы
Вы не можете отвечать на сообщения
Вы не можете редактировать свои сообщения
Вы не можете удалять свои сообщения
Вы не можете голосовать в опросах
Вы не можете прикреплять файлы к сообщениям
Вы не можете скачивать файлы